Завантажити та скачати торренти українською


Арсен Мірзоян - Незручні ліжка (2013) [FLAC] | Pop-Rock

Нові коментарі

Нова тема   Відповісти
Останній раз роздавалося malako (2016-12-05)
Автор Повідомлення
M1kk1 
Свій


З нами з: 22.01.09
Востаннє: 04.12.16
Повідомлень: 78

2013-07-15 14:07  
Арсен Мірзоян - Незручні ліжка (2013) [FLAC] | Pop-Rock

Арсен Мірзоян - Незручні ліжка (2013) [FLAC] | Pop-Rock


Стиль: Pop Rock
Країна, місто: Україна, Запоріжжя
Сайти: Офіційний сайт
Видавець: ТОВ "Ігри розуму"
Пісні:
    1. Коли ти підеш
    2. Капронові банти
    3. П'ята Ахілла
    4. Зимовий пляж
    5. Смужка
    6. Невчасна
    7. Москва-Новосибірськ
    8. На кордоні зими
    9. Вінні-Пух
    10. Пілігрим

    Бонус
    11.Когда весна придет, не знаю
    (дует з О. Пономарьовим)

Тривалість: 00:42:57
Мова: українська, російська (11)
Аудіо-кодек: FLAC
Бітрейт: 837- 1053 кб/с
Джерело: Власний ріп
скани ~11 MB



EAC log:
Exact Audio Copy V1.0 beta 3 from 29. August 2011

EAC extraction logfile from 15. July 2013, 14:55

Арсен Мірзоян / Незручні ліжка

Used drive : TSSTcorpCDDVDW SH-S203B Adapter: 0 ID: 0

Read mode : Secure
Utilize accurate stream : Yes
Defeat audio cache : Yes
Make use of C2 pointers : No

Read offset correction : 6
Overread into Lead-In and Lead-Out : No
Fill up missing offset samples with silence : Yes
Delete leading and trailing silent blocks : No
Null samples used in CRC calculations : Yes
Used interface : Native Win32 interface for Win NT & 2000
Gap handling : Appended to previous track

Used output format : User Defined Encoder
Selected bitrate : 128 kBit/s
Quality : High
Add ID3 tag : No
Command line compressor : C:\Program Files\Exact Audio Copy\Flac\flac.exe
Additional command line options : -V -8 -T "Genre=%genre%" -T "Artist=%artist%" -T "Title=%title%" -T "Album=%albumtitle%" -T "Date=%year%" -T "Tracknumber=%tracknr%" -T "Comment=%comment%" %source%

TOC of the extracted CD

Track | Start | Length | Start sector | End sector
---------------------------------------------------------
1 | 0:00.00 | 5:05.36 | 0 | 22910
2 | 5:05.36 | 3:35.58 | 22911 | 39093
3 | 8:41.19 | 3:49.17 | 39094 | 56285
4 | 12:30.36 | 3:34.70 | 56286 | 72405
5 | 16:05.31 | 3:13.49 | 72406 | 86929
6 | 19:19.05 | 4:18.60 | 86930 | 106339
7 | 23:37.65 | 3:06.16 | 106340 | 120305
8 | 26:44.06 | 4:26.28 | 120306 | 140283
9 | 31:10.34 | 3:09.53 | 140284 | 154511
10 | 34:20.12 | 4:15.69 | 154512 | 173705
11 | 38:36.06 | 4:21.16 | 173706 | 193296

Track 1

Filename C:\Users\Desktop\Desktop\Арсен Мірзоян - Незручні ліжка (2013)\01 Арсен Мірзоян - Коли ти підеш.wav

Pre-gap length 0:00:02.00

Peak level 100.0 %
Extraction speed 1.8 X
Track quality 100.0 %
Test CRC 11BEDCCC
Copy CRC 11BEDCCC
Copy OK

Track 2

Filename C:\Users\Desktop\Desktop\Арсен Мірзоян - Незручні ліжка (2013)\02 Арсен Мірзоян - Капронові банти.wav

Peak level 100.0 %
Extraction speed 1.7 X
Track quality 99.9 %
Test CRC 7AE92B37
Copy CRC 7AE92B37
Copy OK

Track 3

Filename C:\Users\Desktop\Desktop\Арсен Мірзоян - Незручні ліжка (2013)\03 Арсен Мірзоян - П'ята Ахілла.wav

Peak level 100.0 %
Extraction speed 2.1 X
Track quality 100.0 %
Test CRC AAEC0E5A
Copy CRC AAEC0E5A
Copy OK

Track 4

Filename C:\Users\Desktop\Desktop\Арсен Мірзоян - Незручні ліжка (2013)\04 Арсен Мірзоян - Зимовий пляж.wav

Peak level 100.0 %
Extraction speed 2.2 X
Track quality 100.0 %
Test CRC 6B66A7C5
Copy CRC 6B66A7C5
Copy OK

Track 5

Filename C:\Users\Desktop\Desktop\Арсен Мірзоян - Незручні ліжка (2013)\05 Арсен Мірзоян - Смужка.wav

Peak level 100.0 %
Extraction speed 2.3 X
Track quality 100.0 %
Test CRC 0AF19C64
Copy CRC 0AF19C64
Copy OK

Track 6

Filename C:\Users\Desktop\Desktop\Арсен Мірзоян - Незручні ліжка (2013)\06 Арсен Мірзоян - Невчасна.wav

Peak level 100.0 %
Extraction speed 2.6 X
Track quality 100.0 %
Test CRC 97BFAE5B
Copy CRC 97BFAE5B
Copy OK

Track 7

Filename C:\Users\Desktop\Desktop\Арсен Мірзоян - Незручні ліжка (2013)\07 Арсен Мірзоян - Москва-Новосибірськ.wav

Peak level 100.0 %
Extraction speed 2.5 X
Track quality 100.0 %
Test CRC 0EC457A2
Copy CRC 0EC457A2
Copy OK

Track 8

Filename C:\Users\Desktop\Desktop\Арсен Мірзоян - Незручні ліжка (2013)\08 Арсен Мірзоян - На кордоні зими.wav

Peak level 100.0 %
Extraction speed 2.8 X
Track quality 100.0 %
Test CRC 8A498431
Copy CRC 8A498431
Copy OK

Track 9

Filename C:\Users\Desktop\Desktop\Арсен Мірзоян - Незручні ліжка (2013)\09 Арсен Мірзоян - Вінні-Пух.wav

Peak level 100.0 %
Extraction speed 2.8 X
Track quality 100.0 %
Test CRC AF7D469E
Copy CRC AF7D469E
Copy OK

Track 10

Filename C:\Users\Desktop\Desktop\Арсен Мірзоян - Незручні ліжка (2013)\10 Арсен Мірзоян - Пілігрим.wav

Peak level 95.2 %
Extraction speed 3.0 X
Track quality 100.0 %
Test CRC 2B2946E3
Copy CRC 2B2946E3
Copy OK

Track 11

Filename C:\Users\Desktop\Desktop\Арсен Мірзоян - Незручні ліжка (2013)\11 Арсен Мірзоян & Олександр Пономарьов - Когда весна придет, не знаю.wav

Peak level 100.0 %
Extraction speed 3.1 X
Track quality 100.0 %
Test CRC EDB19000
Copy CRC EDB19000
Copy OK

No errors occurred

End of status report

==== Log checksum 9EC1CFC9AE373DA8212CFB27DED896931A7335049FDF4058C9E6F0C16021532A ====
Audiocheker log:

AUDIOCHECKER v2.0 beta (build 457) - by Dester - [email protected]
~~~~~~~~~~~~~~~~~~~~~~~~~~~~~~~~~~

11 files found

01 -===- C:\Users\Desktop\Desktop\Арсен Мірзоян - Незручні ліжка (2013)\01 Арсен Мірзоян - Коли ти підеш.flac
Extracted successfully
Conclusion: this track is CDDA with probability 100%
Tempfile successfully deleted.

02 -===- C:\Users\Desktop\Desktop\Арсен Мірзоян - Незручні ліжка (2013)\02 Арсен Мірзоян - Капронові банти.flac
Extracted successfully
Conclusion: this track is CDDA with probability 100%
Tempfile successfully deleted.

03 -===- C:\Users\Desktop\Desktop\Арсен Мірзоян - Незручні ліжка (2013)\03 Арсен Мірзоян - П'ята Ахілла.flac
Extracted successfully
Conclusion: this track is CDDA with probability 100%
Tempfile successfully deleted.

04 -===- C:\Users\Desktop\Desktop\Арсен Мірзоян - Незручні ліжка (2013)\04 Арсен Мірзоян - Зимовий пляж.flac
Extracted successfully
Conclusion: this track is CDDA with probability 100%
Tempfile successfully deleted.

05 -===- C:\Users\Desktop\Desktop\Арсен Мірзоян - Незручні ліжка (2013)\05 Арсен Мірзоян - Смужка.flac
Extracted successfully
Conclusion: this track is CDDA with probability 100%
Tempfile successfully deleted.

06 -===- C:\Users\Desktop\Desktop\Арсен Мірзоян - Незручні ліжка (2013)\06 Арсен Мірзоян - Невчасна.flac
Extracted successfully
Conclusion: this track is CDDA with probability 100%
Tempfile successfully deleted.

07 -===- C:\Users\Desktop\Desktop\Арсен Мірзоян - Незручні ліжка (2013)\07 Арсен Мірзоян - Москва-Новосибірськ.flac
Extracted successfully
Conclusion: this track is CDDA with probability 100%
Tempfile successfully deleted.

08 -===- C:\Users\Desktop\Desktop\Арсен Мірзоян - Незручні ліжка (2013)\08 Арсен Мірзоян - На кордоні зими.flac
Extracted successfully
Conclusion: this track is CDDA with probability 100%
Tempfile successfully deleted.

09 -===- C:\Users\Desktop\Desktop\Арсен Мірзоян - Незручні ліжка (2013)\09 Арсен Мірзоян - Вінні-Пух.flac
Extracted successfully
Conclusion: this track is CDDA with probability 99%
Tempfile successfully deleted.

10 -===- C:\Users\Desktop\Desktop\Арсен Мірзоян - Незручні ліжка (2013)\10 Арсен Мірзоян - Пілігрим.flac
Extracted successfully
Conclusion: this track is MPEG with probability 100%
Tempfile successfully deleted.

11 -===- C:\Users\Desktop\Desktop\Арсен Мірзоян - Незручні ліжка (2013)\11 Арсен Мірзоян & Олександр Пономарьов - Когда весна придет, не знаю.flac
Extracted successfully
Conclusion: this track is CDDA with probability 100%
Tempfile successfully deleted.


Срібний реліз (на рейтинг впливає 50% завантаженого)
 Трекер:    Зареєстрований   

Завантажити / скачати українську музику



відео для новачків



 Зареєстрований:   2013-07-15 14:07
 Розмір:   295 MB 
 Оцінка музики:   9.4/10 (Голосів: 23)
   
far2shok 
Новенький


З нами з: 21.06.09
Востаннє: 01.11.16
Повідомлень: 13

2013-07-15 16:30  
Арсен рве всіх на кавалки... Так краще?
Oleksa9 
Поважний учасник


З нами з: 17.05.12
Востаннє: 04.12.16
Повідомлень: 225

2013-07-15 16:51  
far2shok написано:
Арсен рулить...

що робить??

ilitbr 
VIP


З нами з: 25.05.09
Востаннє: 04.12.16
Повідомлень: 428

2013-07-15 19:05  
Хороший альбом, хоч і надто спокійний.
ssTAss 
Модератор музики


З нами з: 05.07.08
Востаннє: 05.12.16
Повідомлень: 10939

2013-07-15 22:18  
M1kk1 написано:
Бітрейт:

допишіть, будь ласка, числове значення бітрейту
якщо у всіх треках різні, то межі (від до)

Додано через 4 хвилини 49 секунд:

M1kk1
чи не могли б Ви зробити скани?

M1kk1 
Свій


З нами з: 22.01.09
Востаннє: 04.12.16
Повідомлень: 78

2013-07-15 23:52  
На який обмінник можна залити скани шо б не перехешовувати торент?
ssTAss 
Модератор музики


З нами з: 05.07.08
Востаннє: 05.12.16
Повідомлень: 10939

2013-07-15 23:54  
M1kk1 написано:
На який обмінник можна залити скани

http://img.hurtom.com/

Додано через 1 хвилину 41 секунду:

або киньте мені в ПП, а я сам оформлю в темі (якщо не хочете переробляти торрент-файл)

ssTAss 
Модератор музики


З нами з: 05.07.08
Востаннє: 05.12.16
Повідомлень: 10939

2013-07-16 22:06  
скани додані в темі
дякуємо M1kk1

ilitbr 
VIP


З нами з: 25.05.09
Востаннє: 04.12.16
Повідомлень: 428

2013-07-27 12:26  
"Коли ти підеш" - офіційне відео!

Прокурор 
VIP


З нами з: 24.06.13
Востаннє: 04.12.16
Повідомлень: 343

2014-05-29 13:00  
непогано)
gorislavets 
VIP


З нами з: 29.03.11
Востаннє: 28.11.16
Повідомлень: 372

2016-03-20 17:49  
А що, ліньки переписати прізвища музикантів з обкладинки?

Додано через 2 хвилини 31 секунду:

І скани обкладинок не вклали у роздачу, а фото неякісні - прочитати неможливо.

Леля22 
Попереджень: 2
Попереджень: 2 


З нами з: 22.07.15
Востаннє: 04.12.16
Повідомлень: 693

2016-03-20 18:00  
Мудак і пристосуванець кінчений цей Арсен. Кинув свою дружину і двох дітей і пішов до Тоні Матвієнко, відомої доньки, заради просування по шоу-бізнесу. І творчість таке саме лайно, як і він сам.
ФУ!!! ГАНЬБА!

gorislavets 
VIP


З нами з: 29.03.11
Востаннє: 28.11.16
Повідомлень: 372

2016-03-20 18:37  
Леля22
Ви ще згадайте для повного комплекту, що він чурка і вірменська морда. Що понаїхало чорножопих до неньки-України, пристають до наших дівчат, розріджують святу українську кров )))

Додано через 32 хвилини 17 секунд:

Арсен Мірзоян – вокал
Станіслав Лаврик – клавішні
Володимир Ахременко – ударні
Володимир Кондратенко – гітара
Макс Бочкарьов – бас
Володимир Лебедєв – саксофон
Юрій Погорецький – віолончель
Олександр Береговський – перкусія
Віталій Телезин, Євген Кобзарук – синтезатори, програмування
Макс Малишев – барабани (7, 10)
Іван Лохманюк – бас (7)
Бек-вокал: Віталій Телезин (3), Артем Бабурін (3), Ростислав Терешко (3), Тоня Матвієнко (5)

Леля22 
Попереджень: 2
Попереджень: 2 


З нами з: 22.07.15
Востаннє: 04.12.16
Повідомлень: 693

2016-03-20 19:03  
gorislavets
і ця Тоня, по-моєму, не краще... вона мені теж не подобається. от і об'єдналися. Шкода його першу дружину і особливо дітей... Дружина, мабуть, була наївною.. Не можна. Треба було дивитися на обидва.
а у мене хороша інтуїція на людей. як мені здається.
я бачу вас наскрізь)))
бачте, нема чим зайнятися, то займаюся тут на Толоці вже скіко часу моральним сексом))
думаю, вже почати писати книжки)

Додано через 3 хвилини 32 секунди:

Леля22 написано:
почати писати книжки

чи щось таке... щось.

Ваш часовий пояс: GMT + 2 Години

Нова тема   Відповісти