Завантажити та скачати торренти українською


Каратель / The Punisher (2004) 720p Ukr/Eng | sub Eng

Нові коментарі

Нова тема   Відповісти
Автор Повідомлення
bodia87 
Відео Гуртом - фільмокрай
Відео Гуртом - фільмокрай


З нами з: 24.01.09
Востаннє: 03.12.16
Повідомлень: 468

2013-07-14 12:29  
Каратель / The Punisher (2004) 720p Ukr/Eng | sub Eng

Каратель / The Punisher (2004) 720p Ukr/Eng | sub Eng


Жанр: бойовик, кримінальний, драма
Країна: США, Німеччина



Кінокомпанія:

Режисер: Джонатан Генслейґ
Актори: Томас Джейн, Джон Траволта, Вілл Паттон, Ребекка Ромейн, Бен Фостер, Джон Пінетт, Саманта Матіс, Маркус Джонс, А. Рассел Ендрюс, Джеймс Карпінелло, Лаура Гаррінґ, Едді Джемісон, Кевін Неш, Марк Коллі, Рой Шнайдер, Том Новікі

Сюжет:
Колишній оперативник загону Дельта, Френк Касл приходить на службу в ФБР як агент під прикриттям. Під час однієї з операцій через Касла помирає Боббі Сейнт — син відомого кримінального боса Говарда Сейнта. Сейнт наказує вбити Касла і його сім'ю. Гангстери Сейнта вирізують всю сім'ю Кастла, але самому Френку дивом вдається вижити. Завдяки місцевому відлюдникові Френк повертається до життя з наміром помститися.


Бюджет: 15 500 000 $
Збори: 54 700 000 $
Нагороди та номінації

Нагороди
Prism Awards - Найкращий трюк з вогнем (Марк Чадвік)
Номінації
World Stunt Awards (Taurus Award)
Найкращий трюк, зроблений жінкою-каскадером
Найкращий координатор трюків
Найкраща робота з машиною

Цікаві факти

До початку зйомок Генслейґ мав у своєму розпорядженні менший бюджет, ніж хотів. Генслейґ знав, що бюджет більшості бойовиків становить близько 64 мільйонів доларів, тоді як у нього було всього 15 мільйонів. Окрім цього, на зйомки йому дали 50 днів, що наполовину менше, ніж у більшості фільмів. Через ці проблеми більшу частину сценарію довелося переписати. Згідно з коментарями на DVD, першою сценою фільму мав стати бій у Кувейті під час війни в затоці, і однією з сюжетних ліній розкривалася зрада найкращого друга Френка, що здав його Сейнту.
«Каратель» знімався в Тампі у Флориді. У період пре-продакшину Генслейґ і оператор Конрад Голл переглянули безліч бойовиків, кримінальних драм і вестернів 1970-х.. Ці фільми допомогли творцям зрозуміти, у якому стилі має бути знятий «Каратель».

Сцена вибуху перед Bank of America спричинила паніку серед місцевих жителів, які зразу ж подзвонили 911.

Томас Джейн виконав більшість трюків самостійно.


Тривалість: 02:03:30
Якість:
Відео:
кодек:
розмір кадру: 1280 х 544
бітрейт: 6000 кб/с

Аудіо # 1:
мова: українська
переклад: багатоголосий закадровий
кодек: 5.1
бітрейт: 448 кб/с

Аудіо # 2:
мова: англійська
переклад: оригінал
кодек: 5.1
бітрейт: 640 кб/с

Субтитри:
мова: англійська
тип: програмні (м'які)
формат: *.srt
MediaInfo
General
Unique ID : 215148959662317236776035368467206402052 (0xA1DC2EB139A636D3B02582E9ABB67004)
Complete name : F:\The Punisher (2004) 720p [ukr.eng] Hurtom.mkv
Format : Matroska
Format version : Version 4 / Version 2
File size : 6.11 GiB
Duration : 2h 3mn
Overall bit rate : 7 087 Kbps
Encoded date : UTC 2013-07-14 10:10:39
Writing application : mkvmerge v6.2.0 ('Promised Land') built on Apr 28 2013 12:22:01
Writing library : libebml v1.3.0 + libmatroska v1.4.0

Video
ID : 1
Format : AVC
Format/Info : Advanced Video Codec
Format profile : [email protected]
Format settings, CABAC : Yes
Format settings, ReFrames : 12 frames
Codec ID : V_MPEG4/ISO/AVC
Duration : 2h 3mn
Bit rate : 6 000 Kbps
Width : 1 280 pixels
Height : 544 pixels
Display aspect ratio : 2.35:1
Frame rate mode : Constant
Frame rate : 23.976 fps
Color space : YUV
Chroma subsampling : 4:2:0
Bit depth : 8 bits
Scan type : Progressive
Bits/(Pixel*Frame) : 0.359
Stream size : 5.05 GiB (83%)
Writing library : core 122 r2184 5c85e0a
Encoding settings : cabac=1 / ref=12 / deblock=1:-3:-3 / analyse=0x3:0x113 / me=umh / subme=9 / psy=1 / psy_rd=1.10:0.00 / mixed_ref=1 / me_range=24 / chroma_me=1 / trellis=2 / 8x8dct=1 / cqm=0 / deadzone=21,11 / fast_pskip=0 / chroma_qp_offset=-2 / threads=3 / sliced_threads=0 / nr=0 / decimate=0 / interlaced=0 / bluray_compat=0 / constrained_intra=0 / bframes=6 / b_pyramid=2 / b_adapt=2 / b_bias=0 / direct=3 / weightb=1 / open_gop=0 / weightp=2 / keyint=250 / keyint_min=23 / scenecut=40 / intra_refresh=0 / rc=2pass / mbtree=0 / bitrate=6000 / ratetol=1.0 / qcomp=0.60 / qpmin=0 / qpmax=69 / qpstep=4 / cplxblur=20.0 / qblur=0.5 / ip_ratio=1.40 / pb_ratio=1.30 / aq=2:0.80
Language : English
Default : No
Forced : No

Audio #1
ID : 2
Format : AC-3
Format/Info : Audio Coding 3
Mode extension : CM (complete main)
Format settings, Endianness : Big
Codec ID : A_AC3
Duration : 2h 3mn
Bit rate mode : Constant
Bit rate : 448 Kbps
Channel(s) : 6 channels
Channel positions : Front: L C R, Side: L R, LFE
Sampling rate : 48.0 KHz
Bit depth : 16 bits
Compression mode : Lossy
Delay relative to video : 24ms
Stream size : 396 MiB (6%)
Title : UKR for Hurtom.com [ICTV]
Language : Ukrainian
Default : Yes
Forced : No

Audio #2
ID : 3
Format : AC-3
Format/Info : Audio Coding 3
Mode extension : CM (complete main)
Format settings, Endianness : Big
Codec ID : A_AC3
Duration : 2h 3mn
Bit rate mode : Constant
Bit rate : 640 Kbps
Channel(s) : 6 channels
Channel positions : Front: L C R, Side: L R, LFE
Sampling rate : 48.0 KHz
Bit depth : 16 bits
Compression mode : Lossy
Stream size : 565 MiB (9%)
Title : -EX 5.1 @ 640 kbps
Language : English
Default : No
Forced : No

Text
ID : 4
Format : ASS
Codec ID : S_TEXT/ASS
Codec ID/Info : Advanced Sub Station Alpha
Compression mode : Lossless
Language : English
Default : No
Forced : No
Скріншоти









Джерело: &


Срібний реліз (на рейтинг впливає 50% завантаженого)
 Трекер:    Зареєстрований   

Завантажити / скачати фільм українською



відео для новачків



 Зареєстрований:   2013-07-14 12:29
 Розмір:   6.11 GB 
 Оцінка фільму:   8.4/10 (Голосів: 8)
   
Luckyein 
Новенький


З нами з: 15.07.13
Востаннє: 25.09.13
Повідомлень: 16

2013-07-15 12:39  
Шикарний фільм Happy
Hornet2319 
Новенький


З нами з: 23.10.11
Востаннє: 03.12.16
Повідомлень: 13

2015-07-20 17:02  
станьте на роздачу будь ласка
Ваш часовий пояс: GMT + 2 Години

Нова тема   Відповісти