Завантажити та скачати торренти українською


Мисливці за привидами / Ghost Busters (1984) 720p 2xUkr/Eng | Sub Eng

Нові коментарі

Нова тема   Відповісти
Автор Повідомлення
braveboy 
Відео Гуртом - команда HD
Відео Гуртом - команда HD


З нами з: 15.06.10
Востаннє: 29.10.16
Повідомлень: 958

2013-07-14 06:59  

Мисливці за привидами / Ghost Busters (1984) 720p 2xUkr/Eng | Sub Eng



Who You Gonna Call?

Жанр: фантастика, фентезі, бойовик, комедія
Країна: США



Кінокомпанія: Black Rhino Productions, Columbia Pictures Corporation, Delphi Films
Режисер: Іван Райтмен
Актори: Білл Мюррей, Ден Ейкройд, Сігурні Вівер, Гарольд Реміс, Рік Мореніс, Ені Поттс та інші.

«The world's most successful comedy»


Сюжет:
Наприкінці двадцятого століття виявляється, що в Нью-Йорку живуть не лише звичайні громадяни, але й… привиди. Багатомільйонне населення не може протистояти натиску надприродного. Зрештою на шляху незліченних монстрів не залишається нікого, окрім трьох учених-парапсихологів, яким відомо все про потойбічний світ, щоправда, лише в теорії. І тепер їм доведеться залишити запорошені кабінети й застосувати свої знання на практиці!



Тривалість: 01:45:08
Якість: 720p
Відео:
кодек:
розмір кадру: 1280 х 534
бітрейт: 9425 кб/с

Аудіо # 1:
мова: українська
переклад: багатоголосий закадровий
кодек: 5.1
бітрейт: 384 кб/с

Аудіо # 2:
мова: українська
переклад: двоголосий закадровий
кодек: 5.1
бітрейт: 384 кб/с

Аудіо # 3:
мова: англійська
переклад: оригінал
кодек: 5.1
бітрейт: 640 кб/с

Джерело озвучення:
&

Субтитри:
мова: англійська
тип: програмні (м'які)
формат: *.srt
720p by braveboy
MediaInfo
Video
ID : 1
Format : AVC
Format/Info : Advanced Video Codec
Format profile : [email protected]
Format settings, CABAC : Yes
Format settings, ReFrames : 8 frames
Codec ID : V_MPEG4/ISO/AVC
Duration : 1h 45mn
Bit rate : 9 425 Kbps
Width : 1 280 pixels
Height : 534 pixels
Display aspect ratio : 2.40:1
Frame rate mode : Constant
Frame rate : 23.976 fps
Color space : YUV
Chroma subsampling : 4:2:0
Bit depth : 8 bits
Scan type : Progressive
Bits/(Pixel*Frame) : 0.575
Stream size : 6.76 GiB (85%)
Title : Ghost Busters (1984) 720p by braveboy
Writing library : core 129 r2245 bc13772
Encoding settings : cabac=1 / ref=8 / deblock=1:-3:-3 / analyse=0x3:0x133 / me=umh / subme=9 / psy=1 / psy_rd=0.80:0.00 / mixed_ref=1 / me_range=24 / chroma_me=1 / trellis=1 / 8x8dct=1 / cqm=0 / deadzone=21,11 / fast_pskip=0 / chroma_qp_offset=-2 / threads=6 / lookahead_threads=1 / sliced_threads=0 / nr=0 / decimate=0 / interlaced=0 / bluray_compat=0 / constrained_intra=0 / bframes=6 / b_pyramid=2 / b_adapt=2 / b_bias=0 / direct=1 / weightb=1 / open_gop=0 / weightp=2 / keyint=240 / keyint_min=23 / scenecut=40 / intra_refresh=0 / rc=2pass / mbtree=0 / bitrate=9425 / ratetol=1.0 / qcomp=0.60 / qpmin=10 / qpmax=51 / qpstep=4 / cplxblur=20.0 / qblur=0.5 / ip_ratio=1.40 / pb_ratio=1.30 / aq=1:1.00
Default : Yes
Forced : No

Audio #1
ID : 2
Format : AC-3
Format/Info : Audio Coding 3
Mode extension : CM (complete main)
Format settings, Endianness : Big
Codec ID : A_AC3
Duration : 1h 45mn
Bit rate mode : Constant
Bit rate : 384 Kbps
Channel(s) : 6 channels
Channel positions : Front: L C R, Side: L R, LFE
Sampling rate : 48.0 KHz
Bit depth : 16 bits
Compression mode : Lossy
Stream size : 289 MiB (4%)
Title : 5.1 @ 384 kbps [Ukraine]
Language : Ukrainian
Default : Yes
Forced : No

Audio #2
ID : 3
Format : AC-3
Format/Info : Audio Coding 3
Mode extension : CM (complete main)
Format settings, Endianness : Big
Codec ID : A_AC3
Duration : 1h 45mn
Bit rate mode : Constant
Bit rate : 384 Kbps
Channel(s) : 6 channels
Channel positions : Front: L C R, Side: L R, LFE
Sampling rate : 48.0 KHz
Bit depth : 16 bits
Compression mode : Lossy
Stream size : 289 MiB (4%)
Title : 5.1 @ 384 kbps [1+1]
Language : Ukrainian
Default : No
Forced : No

Audio #3
ID : 4
Format : AC-3
Format/Info : Audio Coding 3
Mode extension : CM (complete main)
Format settings, Endianness : Big
Codec ID : A_AC3
Duration : 1h 45mn
Bit rate mode : Constant
Bit rate : 640 Kbps
Channel(s) : 6 channels
Channel positions : Front: L C R, Side: L R, LFE
Sampling rate : 48.0 KHz
Bit depth : 16 bits
Compression mode : Lossy
Stream size : 481 MiB (6%)
Title : 5.1 @ 640 kbps
Language : English
Default : No
Forced : No

Text
ID : 5
Format : UTF-8
Codec ID : S_TEXT/UTF8
Codec ID/Info : UTF-8 Plain Text
Title : Full
Language : English
Default : No
Forced : No

Menu
00:00:00.000 : en:00:00:00.000
00:06:39.065 : en:00:06:39.065
00:15:46.445 : en:00:15:46.445
00:21:50.059 : en:00:21:50.059
00:28:35.756 : en:00:28:35.756
00:34:51.965 : en:00:34:51.965
00:39:06.678 : en:00:39:06.678
00:48:46.715 : en:00:48:46.715
00:52:15.883 : en:00:52:15.883
00:55:04.051 : en:00:55:04.051
01:04:33.411 : en:01:04:33.411
01:10:41.946 : en:01:10:41.946
01:13:35.286 : en:01:13:35.286
01:18:58.525 : en:01:18:58.525
01:25:17.029 : en:01:25:17.029
01:30:44.731 : en:01:30:44.731
Скріншоти
Особиста оцінка: 10 - без зайвих вагань рекомендую всім!


Срібний реліз (на рейтинг впливає 50% завантаженого)
 Трекер:    Зареєстрований   

Завантажити / скачати фільм українською



відео для новачків



 Зареєстрований:   2013-07-14 07:01
 Розмір:   7.95 GB 
 Оцінка фільму:   9.1/10 (Голосів: 18)
   
Інші релізи
valentin66658 
Новенький


З нами з: 26.01.16
Востаннє: 05.12.16
Повідомлень: 8

2016-11-06 11:03  
скиньтесь роздачою
а то як бомжі роздаєте

igor911 
Відео Гуртом
Відео Гуртом


З нами з: 18.01.08
Востаннє: 08.12.16
Повідомлень: 5193

2016-11-06 11:19  
valentin66658 написано:
а то як бомжі роздаєте

valentin66658 написано:
Рейтинг: 0.08

слідкуй за язиком та рейтингом, "небомж".

Ваш часовий пояс: GMT + 2 Години

Нова тема   Відповісти