Завантажити та скачати торренти українською


Джуніор / Junior (1994) 1080р Ukr/Eng | Sub Eng

Нові коментарі

Нова тема   Відповісти
Автор Повідомлення
Anonymous 







2013-07-14 01:24  
Джуніор / Junior (1994) 1080р Ukr/Eng | Sub Eng



Жанр: комедія, фантастика, мелодрама
Країна: США



Кінокомпанія: Universal Pictures, Northern Lights Entertainment
Режисер: Айвен Райтман / Ivan Reitman
Актори: Арнольд Шварценеґґер / Arnold Schwarzenegger, Денні ДеВіто / Danny DeVito, Емма Томпсон / Emma Thompson, Френк Ланджелла / Frank Langella, Памела Рід / Pamela Reed та інші

Сюжет:
Для того, щоб довести силу винайдених пігулок проти викиднів у вагітних жінок, одному з лікарів, в житті - боязкій і сором'язливій людині - належить стати...першим в світі вагітним чоловіком!


рейтинг MPAA: PG-13 - дітям до 13 років перегляд не бажаний
Вікова категорія: 0+

Тривалість: 01:49:57
Якість: 1080p
Відео:
кодек:
розмір кадру: 1920x1040
бітрейт: 8826 кб/с

Аудіо # 1:
мова: українська
переклад: двоголосий закадровий
Ролі озвучили: Андрій Твердак та Людмила Ардельян
кодек: 2.0
бітрейт: 192 кб/с
Примітка: З цією ж озвучкою фільм транслювався по ТРК Україна та НЛО ТБ.

Аудіо # 2:
мова: англійська
переклад: оригінал
кодек: 5.1
бітрейт: 448 кб/с

Субтитри:
мова: англійська
тип: програмні (м'які)
формат: *.srt

Збережено оригінальні розділи, як на Blu-ray.
MediaInfo
General
Unique ID : 198846006872225719733360531004840102793 (0x9598590FB16338B384076D66B7B64B89)
Complete name : Junior.1994..1080p.Ukr.Eng.mkv
Format : Matroska
Format version : Version 4 / Version 2
File size : 7.27 GiB
Duration : 1h 49mn
Overall bit rate : 9 465 Kbps
Movie name : Джуніор / Junior / Джуниор (1994)
Encoded date : UTC 2013-07-13 21:54:30
Writing application : mkvmerge v6.3.0 ('You can't stop me!') built on Jun 28 2013 20:09:41
Writing library : libebml v1.3.0 + libmatroska v1.4.0

Video
ID : 1
Format : AVC
Format/Info : Advanced Video Codec
Format profile : [email protected]
Format settings, CABAC : Yes
Format settings, ReFrames : 4 frames
Codec ID : V_MPEG4/ISO/AVC
Duration : 1h 49mn
Bit rate : 8 826 Kbps
Width : 1 920 pixels
Height : 1 040 pixels
Display aspect ratio : 1.85:1
Frame rate mode : Constant
Frame rate : 23.976 fps
Color space : YUV
Chroma subsampling : 4:2:0
Bit depth : 8 bits
Scan type : Progressive
Bits/(Pixel*Frame) : 0.184
Stream size : 6.63 GiB (91%)
Title : Джуніор / Junior / Джуниор (1994) [Boriy]
Writing library : core 133 r2334 a3ac64b
Encoding settings : cabac=1 / ref=4 / deblock=1:-3:-3 / analyse=0x3:0x113 / me=umh / subme=11 / psy=1 / psy_rd=1.00:0.00 / mixed_ref=1 / me_range=32 / chroma_me=1 / trellis=2 / 8x8dct=1 / cqm=0 / deadzone=21,11 / fast_pskip=0 / chroma_qp_offset=-1 / threads=12 / lookahead_threads=1 / sliced_threads=0 / nr=0 / decimate=0 / interlaced=0 / bluray_compat=0 / constrained_intra=0 / bframes=6 / b_pyramid=2 / b_adapt=2 / b_bias=0 / direct=3 / weightb=1 / open_gop=0 / weightp=2 / keyint=240 / keyint_min=23 / scenecut=40 / intra_refresh=0 / rc=2pass / mbtree=0 / bitrate=8826 / ratetol=1.0 / qcomp=0.60 / qpmin=0 / qpmax=69 / qpstep=4 / cplxblur=20.0 / qblur=0.5 / ip_ratio=1.40 / pb_ratio=1.30 / aq=1:0.90
Language : English
Default : Yes
Forced : No

Audio #1
ID : 2
Format : AC-3
Format/Info : Audio Coding 3
Mode extension : CM (complete main)
Format settings, Endianness : Big
Codec ID : A_AC3
Duration : 1h 49mn
Bit rate mode : Constant
Bit rate : 192 Kbps
Channel(s) : 2 channels
Channel positions : Front: L R
Sampling rate : 48.0 KHz
Bit depth : 16 bits
Compression mode : Lossy
Delay relative to video : 9ms
Stream size : 151 MiB (2%)
Title : DVO [Novyj] 2.0 192 Kbps [Hurtom-NemoInFire]
Language : Ukrainian
Default : Yes
Forced : No

Audio #2
ID : 3
Format : AC-3
Format/Info : Audio Coding 3
Mode extension : CM (complete main)
Format settings, Endianness : Big
Codec ID : A_AC3
Duration : 1h 49mn
Bit rate mode : Constant
Bit rate : 448 Kbps
Channel(s) : 6 channels
Channel positions : Front: L C R, Side: L R, LFE
Sampling rate : 48.0 KHz
Bit depth : 16 bits
Compression mode : Lossy
Stream size : 352 MiB (5%)
Title : Original
Language : English
Default : No
Forced : No

Text
ID : 4
Format : UTF-8
Codec ID : S_TEXT/UTF8
Codec ID/Info : UTF-8 Plain Text
Title : Eng full
Language : English
Default : No
Forced : No

Menu
00:00:00.000 : :Chapter 1
00:04:48.955 : :Chapter 2
00:12:53.272 : :Chapter 3
00:23:31.243 : :Chapter 4
00:34:35.364 : :Chapter 5
00:40:19.208 : :Chapter 6
01:02:21.988 : :Chapter 7
01:11:59.773 : :Chapter 8
01:25:02.597 : :Chapter 9
01:33:07.999 : :Chapter 10
01:39:08.525 : :Chapter 11
01:43:40.797 : :Chapter 12
01:49:57.007 : :Chapter 13


Джерела та подяки: ріп відео, оригінальні звук та субтитри - boriy (рутор); українська доріжка - NemoInFire (Гуртом)

Особиста оцінка: 8 - мені сподобалося

ЗАЛИШАЙТЕСЬ ЯКОМОГА ДОВШЕ НА РОЗДАЧІ!

СКАЧАВ САМ - ДАЙ СКАЧАТИ ІНШИМ


Срібний реліз (на рейтинг впливає 50% завантаженого)
 Трекер:    Зареєстрований   

Завантажити / скачати фільм українською



відео для новачків



 Зареєстрований:   2013-07-14 01:24
 Розмір:   7.27 GB 
 Оцінка фільму:   4.3/10 (Голосів: 16)
   
Інші релізи
   Джуніор / Junior (1994) Ukr/Eng Arsenfpu  2 / 0   2.18 GB   2016-01-13 15:02 
DCRS 
Новенький


З нами з: 08.04.11
Востаннє: 02.12.16
Повідомлень: 19

2013-07-24 00:19  
Це вже не фантастика)
Ваш часовий пояс: GMT + 2 Години

Нова тема   Відповісти