Завантажити та скачати торренти українською


Без відчуттів (Без почуттів) / Senseless (1998) 1080р 3хUkr/Eng | Sub Eng

Нові коментарі

Нова тема   Відповісти
Автор Повідомлення
Anonymous 







2013-07-13 14:40  
Без відчуттів (Без почуттів) / Senseless (1998) 1080р 3хUkr/Eng | Sub Eng



Жанр: комедія, мелодрама
Країна: США



Кінокомпанія: Dimension Films, Mandeville Films, Gold/Miller Productions
Режисер: Пенелопа Сфіріс / Penelope Spheeris
Актори: Марлон Вайанс / Marlon Wayans, Меттью Ліллард / Matthew Lillard, Ріп Торн / Rip Torn, Бред Дуріф / Brad Dourif, Девід Спейд / David Spade та інші

Сюжет:
Бідний студент Дерріл Візерспун працює на чотирьох роботах, але грошей на оплату рахунків великої родини все одно не вистачає. Єдина надія - вибороти перемогу у конкурсі за посаду молодшого аналітика у відомій брокерській компанії. І якраз доречним тут стає випробування нових ліків, що в декілька разів поліпшують людські відчуття. Молода людина стає мало не супергероєм, але несподівано даються взнаки дивні побічні ефекти ...


рейтинг MPAA: R - особам до 17 років обов'язкова присутність батьків або дорослого опікуна
Вікова категорія: 16+

Тривалість: 01:33:21
Якість: 1080p
Відео:
кодек:
розмір кадру: 1920x1080
бітрейт: 14.1 Mbps

Аудіо # 1:
мова: українська
переклад: багатоголосий закадровий
кодек: 2.0
бітрейт: 192 кб/с
примітка: назву озвучено "Без почуттів"

Аудіо # 2:
мова: українська
переклад: двоголосий закадровий
чоловічі ролі озвучив: Юрій Ребрик
кодек: 2.0
бітрейт: 192 кб/с

Аудіо # 3:
мова: українська
переклад: двоголосий закадровий
ролі озвучили: Євген Пашин і Наталя Ярошенко
кодек: 2.0
бітрейт: 192 кб/с
Примітка: присутня півхвилинна вставка з доріжки Нового

Аудіо # 4:
мова: англійська
переклад: оригінал
кодек: 5.1
бітрейт: 384 кб/с

Субтитри:
мова: англійська
тип: програмні (м'які)
формат: *.srt

Збережено оригінальні розділи, як на Blu-ray.
MediaInfo
Код:
General
Unique ID                   : 218757113141314551793428442730920230246 (0xA4931664BD348D13855FC364003D3D66)
Complete name               : F:\Data6f\RelF\Senseless (1998) [3xUkr,Eng sub.Eng] 1080p [Hurtom].mkv
Format                      : Matroska
Format version              : Version 4 / Version 2
File size                   : 9.81 GiB
Duration                    : 1h 33mn
Overall bit rate            : 15.0 Mbps
Movie name                  : Без почуттів / Без відчуттів / Senseless (1998) [3xUkr,Eng sub.Eng] 1080p [Hurtom-igor911]
Encoded date                : UTC 2015-11-05 13:32:30
Writing application         : mkvmerge v8.5.2 ('Crosses') 64bit
Writing library             : libebml v1.3.3 + libmatroska v1.4.4
Attachements                : cover.jpg
DURATION                    : 01:33:21.792000000
NUMBER_OF_FRAMES            : 175056
NUMBER_OF_BYTES             : 134443008
_STATISTICS_WRITING_APP     : mkvmerge v8.5.2 ('Crosses') 64bit
_STATISTICS_WRITING_DATE_UT : 2015-11-05 13:32:30
_STATISTICS_TAGS            : BPS DURATION NUMBER_OF_FRAMES NUMBER_OF_BYTES

Video
ID                          : 1
Format                      : AVC
Format/Info                 : Advanced Video Codec
Format profile              : [email protected]
Format settings, CABAC      : Yes
Format settings, ReFrames   : 4 frames
Codec ID                    : V_MPEG4/ISO/AVC
Duration                    : 1h 33mn
Bit rate                    : 14.1 Mbps
Width                       : 1 920 pixels
Height                      : 1 080 pixels
Display aspect ratio        : 16:9
Frame rate mode             : Constant
Frame rate                  : 23.976 fps
Color space                 : YUV
Chroma subsampling          : 4:2:0
Bit depth                   : 8 bits
Scan type                   : Progressive
Bits/(Pixel*Frame)          : 0.283
Stream size                 : 8.99 GiB (92%)
Title                       : Без почуттів / Без відчуттів / Senseless / Без чувств (1998) [0ptimus]
Writing library             : core 132 r2310 76a5c3a
Encoding settings           : cabac=1 / ref=4 / deblock=1:-3:-3 / analyse=0x3:0x113 / me=umh / subme=11 / psy=1 / psy_rd=1.00:0.20 / mixed_ref=1 / me_range=32 / chroma_me=1 / trellis=2 / 8x8dct=1 / cqm=0 / deadzone=21,11 / fast_pskip=0 / chroma_qp_offset=-3 / threads=4 / lookahead_threads=1 / sliced_threads=0 / nr=0 / decimate=0 / interlaced=0 / bluray_compat=0 / constrained_intra=0 / bframes=9 / b_pyramid=2 / b_adapt=2 / b_bias=0 / direct=3 / weightb=1 / open_gop=0 / weightp=2 / keyint=240 / keyint_min=23 / scenecut=40 / intra_refresh=0 / rc_lookahead=40 / rc=2pass / mbtree=0 / bitrate=14076 / ratetol=1.0 / qcomp=0.60 / qpmin=0 / qpmax=69 / qpstep=4 / cplxblur=20.0 / qblur=0.5 / vbv_maxrate=50000 / vbv_bufsize=62500 / nal_hrd=none / ip_ratio=1.40 / pb_ratio=1.30 / aq=1:1.00
Language                    : English
Default                     : Yes
Forced                      : Yes
DURATION                    : 01:33:21.721000000
NUMBER_OF_FRAMES            : 134307
NUMBER_OF_BYTES             : 9856009628
_STATISTICS_WRITING_APP     : mkvmerge v8.5.2 ('Crosses') 64bit
_STATISTICS_WRITING_DATE_UT : 2015-11-05 13:32:30
_STATISTICS_TAGS            : BPS DURATION NUMBER_OF_FRAMES NUMBER_OF_BYTES

Audio #1
ID                          : 2
Format                      : AC-3
Format/Info                 : Audio Coding 3
Mode extension              : CM (complete main)
Format settings, Endianness : Big
Codec ID                    : A_AC3
Duration                    : 1h 33mn
Bit rate mode               : Constant
Bit rate                    : 192 Kbps
Channel(s)                  : 2 channels
Channel positions           : Front: L R
Sampling rate               : 48.0 KHz
Compression mode            : Lossy
Stream size                 : 128 MiB (1%)
Title                       : MVO [K1] 2.0 192 kbps [Hurtom-aalleexx85]
Language                    : Ukrainian
Default                     : Yes
Forced                      : No

Audio #2
ID                          : 3
Format                      : AC-3
Format/Info                 : Audio Coding 3
Mode extension              : CM (complete main)
Format settings, Endianness : Big
Codec ID                    : A_AC3
Duration                    : 1h 33mn
Bit rate mode               : Constant
Bit rate                    : 192 Kbps
Channel(s)                  : 2 channels
Channel positions           : Front: L R
Sampling rate               : 48.0 KHz
Compression mode            : Lossy
Stream size                 : 128 MiB (1%)
Title                       : DVO [Novyj] 2.0 192 kbps [Hurtom-aalleexx85]
Language                    : Ukrainian
Default                     : No
Forced                      : No

Audio #3
ID                          : 4
Format                      : AC-3
Format/Info                 : Audio Coding 3
Mode extension              : CM (complete main)
Format settings, Endianness : Big
Codec ID                    : A_AC3
Duration                    : 1h 33mn
Bit rate mode               : Constant
Bit rate                    : 192 Kbps
Channel(s)                  : 2 channels
Channel positions           : Front: L R
Sampling rate               : 48.0 KHz
Compression mode            : Lossy
Stream size                 : 128 MiB (1%)
Title                       : DVO [TET] 2.0 192 kbps [Hurtom-aalleexx85]
Language                    : Ukrainian
Default                     : No
Forced                      : No

Audio #4
ID                          : 5
Format                      : AC-3
Format/Info                 : Audio Coding 3
Mode extension              : CM (complete main)
Format settings, Endianness : Big
Codec ID                    : A_AC3
Duration                    : 1h 33mn
Bit rate mode               : Constant
Bit rate                    : 384 Kbps
Channel(s)                  : 6 channels
Channel positions           : Front: L C R, Side: L R, LFE
Sampling rate               : 48.0 KHz
Compression mode            : Lossy
Stream size                 : 256 MiB (3%)
Title                       : Original 5.1 384 kbps
Language                    : English
Default                     : No
Forced                      : No

Text
ID                          : 6
Format                      : UTF-8
Codec ID                    : S_TEXT/UTF8
Codec ID/Info               : UTF-8 Plain Text
Language                    : English
Default                     : No
Forced                      : No

Menu
00:00:00.000                : :Chapter 01
00:07:17.103                : :Chapter 02
00:15:28.677                : :Chapter 03
00:23:51.555                : :Chapter 04
00:31:14.205                : :Chapter 05
00:39:52.640                : :Chapter 06
00:48:58.060                : :Chapter 07
00:56:55.078                : :Chapter 08
01:03:44.570                : :Chapter 09
01:12:19.667                : :Chapter 10
01:19:29.222                : :Chapter 11
01:27:13.895                : :Chapter 12
01:33:21.637                : :Chapter 13




Джерела та подяки:
ріп відео - 0ptimus (рутор); українські доріжки - aalleexx85 - зведення, xslim, РОМЕО - запис з ТБ, MrRyanCooper - вчасно повідомив про трансляцію на К1; українізований постер - somnambula; інформація про озвучення - Віктор (всі - Гуртом).





УВАГА!
05.11.2015 реліз оновлено - додано озвучення від К1 та ТЕТ



ЗАЛИШАЙТЕСЬ ЯКОМОГА ДОВШЕ НА РОЗДАЧІ!

СКАЧАВ САМ - ДАЙ СКАЧАТИ ІНШИМ


Срібний реліз (на рейтинг впливає 50% завантаженого)
 Трекер:    Зареєстрований   

Завантажити / скачати фільм українською



відео для новачків



 Зареєстрований:   2015-11-05 16:41
 Розмір:   9.81 GB 
 Оцінка фільму:   5.7/10 (Голосів: 22)
   
Інші релізи
   Без відчуттів / Senseless (1998) AVC 3xUkr/Eng | Sub Eng aalleexx85  3 / 0   2.55 GB   2015-10-30 18:26 
   Без відчуттів / Senseless (1998) 720p 2xUkr/Eng | Sub Eng Mr Yuran  2 / 0   4.68 GB   2013-12-13 17:44 
   Без відчуттів / Senseless (1998) 2хUkr patriot2305  2 / 0   1.45 GB   2013-08-10 18:18 
Anonymous 







2015-11-05 16:57  
Реліз оновлено - додано доріжки від К1 та ТЕТ.
Ваш часовий пояс: GMT + 2 Години

Нова тема   Відповісти