Завантажити та скачати торренти українською


Митниця дає добро / Нічого декларувати / Rien à déclarer (2010) 720p Ukr/Fra | Sub Ukr/Fra

Нові коментарі

Нова тема   Відповісти
Автор Повідомлення
chaoscor 
Свій


З нами з: 17.10.10
Востаннє: 03.12.16
Повідомлень: 73

2013-07-13 13:46  
Митниця дає добро / Нічого декларувати / Rien à déclarer (2010) 720p Ukr/Fra | Sub Ukr/Fra

Митниця дає добро / Нічого декларувати / Rien à déclarer (2010) 720p Ukr/Fra | Sub Ukr/Fra


Жанр: комедія
Країна: Франція



Режисер: Дені Бун
Актори: Бенуа Пульворд, Дені Бун, Джулі Бернард, Карін Віар, Франсуа Даміенс, Болі Ланнерс

Сюжет:
Історія двох невдах-митників, француза і бельгійця. Не відчуваючи особливої приязні один до одного вони змушені стати напарниками і брати участь у ризикованій операції.


Тривалість: 01:48:18
Якість:
Відео:
кодек:
розмір кадру: 1280 х 546
бітрейт: 5717 кб/с

Аудіо # 1:
мова: українська
переклад: багатоголосий закадровий
кодек: 2.0
бітрейт: 192 кб/с

доріжка з релізу Gelios

Джерело озвучення:


Аудіо # 2:
мова: французька
переклад: оригінал
кодек: 5.1
бітрейт: 1510 кб/с

Субтитри # 1:
мова: українська
тип: програмні (м'які)
формат: *.srt

Субтитри # 2:
мова: французька
тип: програмні (м'які)
формат: *.srt
MediaInfo
D:\ІНШЕ\Rien a declarer (2010) 720p. UkrFra Sub UkrFra.mkv
General
Complete name : D:\ІНШЕ\Rien a declarer (2010) 720p. UkrFra Sub UkrFra.mkv
Format : Matroska
File size : 5.61 GiB
Duration : 1h 48mn
Overall bit rate : 7 421 Kbps
Encoded date : UTC 2013-07-07 19:26:05
Writing application : mkvmerge v5.6.0 ('Kenya Kane') built on May 27 2012 16:44:04
Writing library : libebml v1.2.3 + libmatroska v1.3.0
Video #1
ID : 1
Format : AVC
Format/Info : Advanced Video Codec
Format profile : [email protected]
Format settings, CABAC : Yes
Format settings, ReFrames : 9 frames
Muxing mode : Container [email protected]
Codec ID : V_MPEG4/ISO/AVC
Duration : 1h 48mn
Bit rate : 5 717 Kbps
Width : 1 280 pixels
Height : 546 pixels
Display aspect ratio : 2.35:1
Frame rate : 24.000 fps
Color space : YUV
Chroma subsampling : 4:2:0
Bit depth : 8 bits
Scan type : Progressive
Bits/(Pixel*Frame) : 0.341
Stream size : 4.22 GiB (75%)
Title : HDChina
Writing library : core 115 r1995 c1e60b9
Encoding settings : cabac=1 / ref=9 / deblock=1:-3:-3 / analyse=0x3:0x133 / me=umh / subme=10 / psy=1 / psy_rd=1.00:0.00 / mixed_ref=1 / me_range=32 / chroma_me=1 / trellis=2 / 8x8dct=1 / cqm=0 / deadzone=21,11 / fast_pskip=0 / chroma_qp_offset=-2 / threads=12 / sliced_threads=0 / nr=0 / decimate=0 / interlaced=0 / bluray_compat=0 / constrained_intra=0 / bframes=8 / b_pyramid=2 / b_adapt=2 / b_bias=0 / direct=3 / weightb=1 / open_gop=0 / weightp=2 / keyint=250 / keyint_min=24 / scenecut=40 / intra_refresh=0 / rc_lookahead=60 / rc=2pass / mbtree=1 / bitrate=5717 / ratetol=1.0 / qcomp=0.60 / qpmin=0 / qpmax=69 / qpstep=4 / cplxblur=20.0 / qblur=0.5 / ip_ratio=1.40 / aq=1:1.00
Language : English
Audio #2
ID : 2
Format : AC-3
Format/Info : Audio Coding 3
Mode extension : CM (complete main)
Codec ID : A_AC3
Duration : 1h 48mn
Bit rate mode : Constant
Bit rate : 192 Kbps
Channel(s) : 2 channels
Channel positions : Front: L R
Sampling rate : 48.0 KHz
Bit depth : 16 bits
Stream size : 149 MiB (3%)
Language : Ukrainian
Audio #3
ID : 3
Format :
Format/Info : Digital Theater Systems
Codec ID : A_DTS
Duration : 1h 48mn
Bit rate mode : Constant
Bit rate : 1 510 Kbps
Channel(s) : 6 channels
Channel positions : Front: L C R, Side: L R, LFE
Sampling rate : 48.0 KHz
Bit depth : 24 bits
Stream size : 1.14 GiB (20%)
Title : Оригинал 1536 kbps
Language : French
Text #4
ID : 4
Format : UTF-8
Codec ID : S_TEXT/UTF8
Codec ID/Info : UTF-8 Plain Text
Title : Субтитры R5
Language : Ukrainian
Text #5
ID : 5
Format : UTF-8
Codec ID : S_TEXT/UTF8
Codec ID/Info : UTF-8 Plain Text
Language : French
Скріншоти









Джерело: &
Особиста оцінка: 10 - без зайвих вагань рекомендую всім!


 Трекер:    Зареєстрований   

Завантажити / скачати фільм українською



відео для новачків



 Зареєстрований:   2013-07-13 13:46
 Розмір:   5.61 GB 
 Оцінка фільму:   9.7/10 (Голосів: 19)
   
waldi-hurtom 
VIP


З нами з: 07.10.12
Востаннє: 03.12.16
Повідомлень: 611

2013-08-22 19:19  
Чудова французька комедія! Давно такої не бачив, 9/10. Дякую за реліз!
Ваш часовий пояс: GMT + 2 Години

Нова тема   Відповісти