Завантажити та скачати торренти українською


Кольори / Colors (1988) 720p 2xUkr/Eng

Нові коментарі

Нова тема   Відповісти
Автор Повідомлення
bodia87 
Відео Гуртом - фільмокрай
Відео Гуртом - фільмокрай


З нами з: 24.01.09
Востаннє: 07.12.16
Повідомлень: 468

2013-07-12 20:51  
Кольори / Colors (1988) 720p 2xUkr/Eng

Кольори / Colors (1988) 720p 2xUkr/Eng


Жанр: бойовик, кримінальний, драма
Країна: США



Кінокомпанія: та

Режисер: Денніс Хоппер
Актори: Шон Пенн, Роберт Дювалл, Марія Кончіта Алонсо, Ренди Брукс, Гранд Л. Буш, Дон Чідл, Жерардо Мейя та інші...

Сюжет:
Лос-Анжелес накрила хвиля злочинності. У місті орудують сотні злочинних угруповань, до яких входить більше 70000 чоловік. Щодня в бандитських розборках гинуть мирні жителі. Такий стан речей не влаштовує двох «гарячих» поліцейських.

Один з них - навчений досвідом і надзвичайно жорстокий, другий - молодий, але з дуже крутою вдачею. Разом вони намагаються зупинити насильство на вулицях міста. Поступово ситуація виходить з-під контролю, і Лос-Анджелес перетворюється в криваве поле бою. І без того напружене становище ускладнюється любовною інтригою, що виникла між молодим поліцейським і прекрасною дівчиною, що входить в одну із банд.

Але чи зможуть вони бути разом, адже в світі, де править жорстокість, за помилки доводиться платити кров'ю.


Тривалість: 01:54:49
Якість: 720p
Відео:
кодек:
розмір кадру: 1280 х 688
бітрейт: 3181 кб/с

Аудіо # 1:
мова: українська
переклад: багатоголосий закадровий
кодек: 2.0
бітрейт: 192 кб/с

Аудіо # 2:
мова: українська
переклад: двоголосий закадровий
кодек: 2.0
бітрейт: 192 кб/с

Аудіо # 3:
мова: англійська
переклад: оригінал
кодек: 2.0
бітрейт: 384 кб/с
MediaInfo
General
Unique ID : 176523555826113207725190751010057144855 (0x84CD3340AB4AE67FB1A6F97FE594CA17)
Complete name : F:\Release\Colors (1988) 720p [2xukr.eng] Hurtom.mkv
Format : Matroska
Format version : Version 4 / Version 2
File size : 3.23 GiB
Duration : 1h 54mn
Overall bit rate : 4 029 Kbps
Encoded date : UTC 2013-07-12 18:30:55
Writing application : mkvmerge v6.2.0 ('Promised Land') built on Apr 28 2013 12:22:01
Writing library : libebml v1.3.0 + libmatroska v1.4.0

Video
ID : 1
Format : AVC
Format/Info : Advanced Video Codec
Format profile : [email protected]
Format settings, CABAC : Yes
Format settings, ReFrames : 8 frames
Codec ID : V_MPEG4/ISO/AVC
Duration : 1h 54mn
Bit rate : 3 181 Kbps
Width : 1 280 pixels
Height : 688 pixels
Display aspect ratio : 1.85:1
Frame rate mode : Constant
Frame rate : 25.000 fps
Color space : YUV
Chroma subsampling : 4:2:0
Bit depth : 8 bits
Scan type : Progressive
Bits/(Pixel*Frame) : 0.144
Stream size : 2.55 GiB (79%)
Writing library : core 128 r2216 198a7ea
Encoding settings : cabac=1 / ref=8 / deblock=1:0:0 / analyse=0x3:0x113 / me=umh / subme=10 / psy=1 / psy_rd=1.00:0.15 / mixed_ref=1 / me_range=32 / chroma_me=1 / trellis=2 / 8x8dct=1 / cqm=0 / deadzone=21,11 / fast_pskip=1 / chroma_qp_offset=-3 / threads=6 / lookahead_threads=1 / sliced_threads=0 / nr=0 / decimate=1 / interlaced=0 / bluray_compat=0 / constrained_intra=0 / bframes=3 / b_pyramid=2 / b_adapt=2 / b_bias=0 / direct=1 / weightb=1 / open_gop=0 / weightp=2 / keyint=250 / keyint_min=25 / scenecut=40 / intra_refresh=0 / rc_lookahead=40 / rc=crf / mbtree=1 / crf=19.0 / qcomp=0.60 / qpmin=0 / qpmax=69 / qpstep=4 / vbv_maxrate=24000 / vbv_bufsize=24000 / crf_max=0.0 / nal_hrd=none / ip_ratio=1.40 / aq=1:1.00
Default : Yes
Forced : No

Audio #1
ID : 2
Format : AC-3
Format/Info : Audio Coding 3
Mode extension : CM (complete main)
Format settings, Endianness : Big
Codec ID : A_AC3
Duration : 1h 54mn
Bit rate mode : Constant
Bit rate : 192 Kbps
Channel(s) : 2 channels
Channel positions : Front: L R
Sampling rate : 48.0 KHz
Bit depth : 16 bits
Compression mode : Lossy
Stream size : 158 MiB (5%)
Title : Ukr for Hurtom.com [ENTER FILM]
Language : Ukrainian
Default : Yes
Forced : No

Audio #2
ID : 3
Format : AC-3
Format/Info : Audio Coding 3
Mode extension : CM (complete main)
Format settings, Endianness : Big
Codec ID : A_AC3
Duration : 1h 54mn
Bit rate mode : Constant
Bit rate : 192 Kbps
Channel(s) : 2 channels
Channel positions : Front: L R
Sampling rate : 48.0 KHz
Bit depth : 16 bits
Compression mode : Lossy
Stream size : 158 MiB (5%)
Title : Ukr for Hurtom.com [1+1]
Language : Ukrainian
Default : No
Forced : No

Audio #3
ID : 4
Format : AC-3
Format/Info : Audio Coding 3
Mode extension : CM (complete main)
Format settings, Endianness : Big
Codec ID : A_AC3
Duration : 1h 54mn
Bit rate mode : Constant
Bit rate : 384 Kbps
Channel(s) : 2 channels
Channel positions : Front: L R
Sampling rate : 48.0 KHz
Bit depth : 16 bits
Compression mode : Lossy
Stream size : 315 MiB (10%)
Language : English
Default : No
Forced : No
Скріншоти










Джерело:
Особиста оцінка: 8 - мені сподобалося


Срібний реліз (на рейтинг впливає 50% завантаженого)
 Трекер:    Зареєстрований   

Завантажити / скачати фільм українською



відео для новачків



 Зареєстрований:   2013-07-12 20:51
 Розмір:   3.23 GB 
 Оцінка фільму:   8.5/10 (Голосів: 6)
   
Інші релізи
   Кольори / Colors (1988) Ukr/Eng rooster  3 / 0   2.19 GB   2011-07-12 17:57 
bohdk 
Відео Гуртом - субтитрування
Відео Гуртом - субтитрування


З нами з: 23.10.09
Востаннє: 07.12.16
Повідомлень: 557

2013-07-13 08:53  
bodia87
Поправ, будь ласка, кальку з російської

Лос-Анджелес захлеснула хвиля злочинності. -
Лос-Анжелес накрила хвиля злочинності

bodia87 
Відео Гуртом - фільмокрай
Відео Гуртом - фільмокрай


З нами з: 24.01.09
Востаннє: 07.12.16
Повідомлень: 468

2013-07-13 10:13  
bohdk

Це калька звідси

waldi-hurtom 
VIP


З нами з: 07.10.12
Востаннє: 07.12.16
Повідомлень: 611

2013-07-15 20:33  
Дуже непоганий поліційний бойовик. Тільки опис не сподобався. Таке враження, що той, хто писав, фільма не дивився. Дякую за реліз! 10/10
Ваш часовий пояс: GMT + 2 Години

Нова тема   Відповісти