Завантажити та скачати торренти українською


Куля в Голову / Нестримний / Bullet to the Head (2012) 1080p Ukr/Eng | Sub Ukr/Eng

Нові коментарі

Нова тема   Відповісти
Автор Повідомлення
Віталій Прискурій 
Свій


З нами з: 18.06.13
Востаннє: 01.12.16
Повідомлень: 144

2013-07-12 20:34  
Куля в Голову / Нестримний / Bullet to the Head (2012) 1080p Ukr/Eng | Sub Ukr/Eng

Куля в Голову / Нестримний / Bullet to the Head (2012) 1080p Ukr/Eng | Sub Ukr/Eng


Жанр: бойовик, екшн, кримінальний
Країна: США



У прокаті фільм демонструвався виключно російською мовою!


Кінокомпанія: Dark Films
Режисер: Уолтер Гілл
Актори: Сільвестр Сталлоне / Sylvester Stallone (James Bonomo, $ 12 000 000), Санґ Кенґ / Sung Kang (Taylor Kwon), Сара Шахі / Sarah Shahi (Lisa), Адевале Акінойе-Агбаже / Adewale Akinnuoye-Agbaje (Robert Nkomo Morel), Джейсон Момоа / Jason Momoa (Keegan), Крістіан Слейтер / Christian Slater (Marcus Baptiste), Джон Седа / Jon Seda (Louis Blanchard), Голт МакКеллані / Holt McCallany (Hank Greely)

Сюжет:
Кілер з Нового Орлеана об'єднується з молодим поліцейським, розслідуючи справу, яка виводить їх з похмурих задвірок Нового Орлеана в світлі коридори урядових будівель у Вашингтоні. Незвичайний дует формується в результаті двох жорстоких убивств. Герої прибирають всіх, хто стоїть у них на шляху, і готові пожертвувати всім, щоб помститися.


Переклад і озвучення виконано: UAVoice
Переклад: Вікторія Волошина.
Редактор: Дмитро Урсуляк.
Озвучка: Maryena, Віра Іваночко, Дмитро Роєцький, Дмитро Урсуляк, Леонід Статівка, Макс Ткачук, Роберт Менус, Богдан Бальбуза, Дмитро Кухарук, Ігор Бережницький, Віталій Прискурій.
Монтаж та робота зі звуком: Дмитро Урсуляк(BOOGud), Віталій Прискурій - 5.1.
Обкладинки: Данило Земляний ( juicifer)

Тривалість: 01:31:33
Якість: [BD-Remux]
Відео:
кодек:
розмір кадру: 1920x1036
бітрейт: 10.2 Mbps

Аудіо # 1:
мова: українська
переклад: багатоголосий закадровий | UAVoice
кодек: 5.1 [Отримано шляхом накладанням чистих голосів на центральний канал]
бітрейт: 384 кб/с

Джерело озвучення:


Аудіо # 2:
мова: англійська
переклад: оригінал
кодек: 5.1
бітрейт: 640 кб/с

Субтитри:
мова: українська
тип: програмні (м'які)
формат: *.srt

Субтитри:
мова: англійська
тип: програмні (м'які)
формат: *.srt
MediaInfo
General
Unique ID : 193060744341288997990304603229545766362 (0x913E2598B30AE79F9037880B805B1DDA)
Complete name : C:\UAVoice\Bullet.To.The.Head.2012..1080p.Ukr.Eng 5.1.mkv
Format : Matroska
Format version : Version 2
File size : 7.18 GiB
Duration : 1h 31mn
Overall bit rate : 11.2 Mbps
Movie name : Куля в Голову / Нестримний / Bullet to the Head (2012) 720p Ukr/Eng | Sub Ukr/Eng
Encoded date : UTC 2013-07-12 17:43:54
Writing application : mkvmerge v4.2.0 ('No Talking') збірка від Jul 28 2010 18:38:23
Writing library : libebml v1.0.0 + libmatroska v1.0.0

Video
ID : 1
Format : AVC
Format/Info : Advanced Video Codec
Format profile : [email protected]
Format settings, CABAC : Yes
Format settings, ReFrames : 4 frames
Muxing mode : Header stripping
Codec ID : V_MPEG4/ISO/AVC
Duration : 1h 31mn
Bit rate : 10.2 Mbps
Width : 1 920 pixels
Height : 1 036 pixels
Display aspect ratio : 1.853
Frame rate : 23.976 fps
Color space : YUV
Chroma subsampling : 4:2:0
Bit depth : 8 bits
Scan type : Progressive
Bits/(Pixel*Frame) : 0.214
Stream size : 6.39 GiB (89%)
Title : Release by N1NT3NDO
Writing library : core 130 r2273 b3065e6
Encoding settings : cabac=1 / ref=4 / deblock=1:-3:-3 / analyse=0x3:0x113 / me=umh / subme=10 / psy=1 / psy_rd=1.00:0.00 / mixed_ref=1 / me_range=32 / chroma_me=1 / trellis=2 / 8x8dct=1 / cqm=0 / deadzone=21,11 / fast_pskip=0 / chroma_qp_offset=-2 / threads=12 / lookahead_threads=1 / sliced_threads=0 / nr=0 / decimate=0 / interlaced=0 / bluray_compat=0 / constrained_intra=0 / bframes=5 / b_pyramid=2 / b_adapt=2 / b_bias=0 / direct=2 / weightb=1 / open_gop=0 / weightp=2 / keyint=240 / keyint_min=23 / scenecut=40 / intra_refresh=0 / rc_lookahead=80 / rc=2pass / mbtree=1 / bitrate=10213 / ratetol=1.0 / qcomp=0.60 / qpmin=0 / qpmax=69 / qpstep=4 / cplxblur=20.0 / qblur=0.5 / ip_ratio=1.40 / aq=1:0.70
Language : English

Audio #1
ID : 2
Format : AC-3
Format/Info : Audio Coding 3
Mode extension : CM (complete main)
Muxing mode : Header stripping
Codec ID : A_AC3
Duration : 1h 31mn
Bit rate mode : Constant
Bit rate : 384 Kbps
Channel(s) : 6 channels
Channel positions : Front: L C R, Side: L R, LFE
Sampling rate : 48.0 KHz
Bit depth : 16 bits
Compression mode : Lossy
Stream size : 251 MiB (3%)
Title : UAVoice5.1
Language : Ukrainian

Audio #2
ID : 3
Format : AC-3
Format/Info : Audio Coding 3
Mode extension : CM (complete main)
Muxing mode : Header stripping
Codec ID : A_AC3
Duration : 1h 31mn
Bit rate mode : Constant
Bit rate : 640 Kbps
Channel(s) : 6 channels
Channel positions : Front: L C R, Side: L R, LFE
Sampling rate : 48.0 KHz
Bit depth : 16 bits
Compression mode : Lossy
Stream size : 419 MiB (6%)
Title : Eng
Language : English

Text #1
ID : 4
Format : UTF-8
Codec ID : S_TEXT/UTF8
Codec ID/Info : UTF-8 Plain Text
Title : UAVoice
Language : Ukrainian

Text #2
ID : 5
Format : UTF-8
Codec ID : S_TEXT/UTF8
Codec ID/Info : UTF-8 Plain Text
Language : English
Скріншоти







Джерело: &
Особиста оцінка: 10 - без зайвих вагань рекомендую всім!


Авторський реліз (завантажувати можна без реєстрації)
 Трекер:    Зареєстрований   

Завантажити / скачати фільм українською



відео для новачків



 Зареєстрований:   2013-07-12 20:34
 Розмір:   7.18 GB 
 Оцінка фільму:   9.8/10 (Голосів: 13)
   
igor911 
Відео Гуртом
Відео Гуртом


З нами з: 18.01.08
Востаннє: 09.12.16
Повідомлень: 5196

2013-07-12 23:51  
Віталій Прискурій написано:
Якість: [BD-Remux]

виправте BD-Remux на 1080p

Konfucius 
Управління
Управління


З нами з: 30.09.07
Востаннє: 09.12.16
Повідомлень: 4744

2013-07-13 22:14  
Тут теж немає скріншота з українськими субтитрами.
-VJ- 
VIP


З нами з: 01.11.09
Востаннє: 08.12.16
Повідомлень: 578

2013-08-06 19:43  
Озвучка на трійку.

Купа русизмів, інколи невірні наголоси...
Хоча це, звісно, краще, аніж чисто російська Happy

Ua.bos_01 
VIP


З нами з: 22.06.15
Востаннє: 06.12.16
Повідомлень: 1291

2015-08-14 16:34  
Друзі - станьте на роздачу! 
Ваш часовий пояс: GMT + 2 Години

Нова тема   Відповісти