Завантажити та скачати торренти українською


Дракула / Dracula (1979) 720p Ukr/Eng

Нові коментарі

Нова тема   Відповісти
Автор Повідомлення
bodia87 
Відео Гуртом - фільмокрай
Відео Гуртом - фільмокрай


З нами з: 24.01.09
Востаннє: 07.12.16
Повідомлень: 468

2013-07-11 09:53  
Дракула / Dracula (1979) 720p Ukr/Eng

Дракула / Dracula (1979) 720p Ukr/Eng


Жанр: містика, романтичний
Країна: Великобританія, США



Кінокомпанія:
Режисер: Джон Бедхем
Актори: Френк Ланджела, Лоуренс Олів’є, Дональд Плезенс, Тревор Ів, Кейт Неліган, Жан Френсіс, Джанін Дувіцкий, Тоні Хейгарт, Тедді Тернер, Сільвестр МакКой

Сюжет:
Одного разу, біля берегів помістя Уїтбі, розбивається корабель з дивним вантажем на борту – скринями із землею. З цієї аварії виживає тільки один пасажир, який насправді є графом Дракулою. Знаходить його міс Люсі зі своїм батьком-лікарем, який керує психіатричною лікарнею. Граф веде себе дуже чемно і ввічливо, він зачаровує Люсі та її подругу Міну Ван Хельсінг, проте наречений Люсі, Джонатан відчуває до гостя недовіру, і не дарма, адже згодом Міну знаходять знекровленою. Приїхавши до помістя батько Міни, професор Абрахам Ван Хельсінг, береться разом з Джонатаном різними методами вивести графа на «чисту воду» і запобігти жаху, який загрожує жителям помістя.


Тривалість: 01:49:04
Якість:
Відео:
кодек:
розмір кадру: 1280 х 540
бітрейт: 3 863 кб/с

Аудіо # 1:
мова: українська
переклад: багатоголосий закадровий
кодек: 2.0
бітрейт: 192 кб/с

Аудіо # 2:
мова: англійська
переклад: оригінал
кодек: 2.0
бітрейт: 192 кб/с
MediaInfo
General
Unique ID : 171117032904220636098668410679433791754 (0x80BBF1179BE1D167BAD4E0277D82890A)
Complete name : F:\Release\Dracula (1979) 720p [ukr.eng] Hurtom.mkv
Format : Matroska
Format version : Version 4 / Version 2
File size : 3.30 GiB
Duration : 1h 49mn
Overall bit rate : 4 333 Kbps
Encoded date : UTC 2013-07-10 22:23:15
Writing application : mkvmerge v6.2.0 ('Promised Land') built on Apr 28 2013 12:22:01
Writing library : libebml v1.3.0 + libmatroska v1.4.0

Video
ID : 1
Format : AVC
Format/Info : Advanced Video Codec
Format profile : [email protected]
Format settings, CABAC : No
Format settings, ReFrames : 2 frames
Codec ID : V_MPEG4/ISO/AVC
Duration : 1h 49mn
Bit rate : 3 863 Kbps
Width : 1 280 pixels
Height : 540 pixels
Display aspect ratio : 2.40:1
Frame rate mode : Constant
Frame rate : 23.976 fps
Color space : YUV
Chroma subsampling : 4:2:0
Bit depth : 8 bits
Scan type : Progressive
Bits/(Pixel*Frame) : 0.233
Stream size : 2.94 GiB (89%)
Language : English
Default : Yes
Forced : No
Color primaries : BT.709
Transfer characteristics : BT.709
Matrix coefficients : BT.709

Audio #1
ID : 2
Format : AC-3
Format/Info : Audio Coding 3
Mode extension : CM (complete main)
Format settings, Endianness : Big
Codec ID : A_AC3
Duration : 1h 49mn
Bit rate mode : Constant
Bit rate : 192 Kbps
Channel(s) : 2 channels
Channel positions : Front: L R
Sampling rate : 48.0 KHz
Bit depth : 16 bits
Compression mode : Lossy
Stream size : 150 MiB (4%)
Title : Ukr for Hurtom.com [TRK UKRAINE]
Language : Ukrainian
Default : Yes
Forced : No

Audio #2
ID : 3
Format : AC-3
Format/Info : Audio Coding 3
Mode extension : CM (complete main)
Format settings, Endianness : Big
Codec ID : A_AC3
Duration : 1h 49mn
Bit rate mode : Constant
Bit rate : 192 Kbps
Channel(s) : 2 channels
Channel positions : Front: L R
Sampling rate : 48.0 KHz
Bit depth : 16 bits
Compression mode : Lossy
Stream size : 150 MiB (4%)
Language : English
Default : No
Forced : No

Menu
00:00:00.000 : en:Ship of the Damned
00:03:57.000 : en:Lone Survivor
00:10:05.000 : en:Dracula鈥檚 Baggage
00:15:46.000 : en:Welcoming Party
00:23:57.000 : en:Midnight Encounters
00:30:03.000 : en:Innocent Victim
00:35:45.000 : en:Business at the Castle
00:41:16.000 : en:Van Helsing鈥檚 Arrival
00:44:54.000 : en:Intimate Dinner
00:52:36.000 : en:A Father鈥檚 Gift
00:57:09.000 : en:United For Eternity
01:04:00.000 : en:Family Reunion
01:10:30.000 : en:Casting out Evil
01:14:31.000 : en:Wild Work to be Done
01:19:48.000 : en:King of His Kind
01:25:07.000 : en:Healing Lucy
01:30:41.000 : en:Supernatural Love
01:39:55.000 : en:Last Voyage
Скріншоти











Джерело: &


Срібний реліз (на рейтинг впливає 50% завантаженого)
 Трекер:    Зареєстрований   

Завантажити / скачати фільм українською



відео для новачків



 Зареєстрований:   2013-07-11 09:53
 Розмір:   3.3 GB 
 Оцінка фільму:   10/10 (Голосів: 4)
   
Інші релізи
   Дракула / Dracula (1979) Ukr/Eng bodia87  3 / 0   2.12 GB   2013-07-11 17:26 
Ваш часовий пояс: GMT + 2 Години

Нова тема   Відповісти