Завантажити та скачати торренти українською


Казино Джек / Casino Jack (2010) 720p Ukr/Eng | sub Eng

Нові коментарі

Нова тема   Відповісти
Автор Повідомлення
bodia87 
Відео Гуртом - фільмокрай
Відео Гуртом - фільмокрай


З нами з: 24.01.09
Востаннє: 05.12.16
Повідомлень: 468

2013-07-10 22:29  
Казино Джек / Casino Jack (2010) 720p Ukr/Eng | sub Eng

Казино Джек / Casino Jack (2010) 720p Ukr/Eng | sub Eng


Жанр: біографічний, комедія, кримінальний
Країна: Канада



Кінокомпанія: Bagman (2009), Rollercoaster Entertainment
Режисер: Джордж Хікенлупер
Актори: Кевін Спейсі, Келлі Престон, Беррі Пеппер, Рашель Лефевр, Джон Ловіц, Ерік Швейг, Морі Чайкін, Яннік Біссон, Сіма Фішер, Крістіан Кемпбелл

Сюжет:
Фільм, знятий за реальними подіями, про колишнього республіканського лобіста Джека Абрамоффе, який у березні 2006 року був засуджений до п'яти років і десяти місяців позбавлення волі за шахрайство під час укладання угоди на купівлю кораблів-казино, збиток від його незаконних операцій оцінювався у 21 мільйон доларів.


Тривалість: 01:48:35
Якість:
Відео:
кодек:
розмір кадру: 1280 х 544
бітрейт: 2 904 кб/с
CRF: 17

Аудіо # 1:
мова: українська
переклад: багатоголосий закадровий
кодек: 5.1
бітрейт: 384 кб/с

Аудіо # 2:
мова: англійська
переклад: оригінал
кодек: 5.1
бітрейт: 384 кб/с

Субтитри:
мова: англійська
тип: програмні (м'які)
формат: *.srt
MediaInfo
General
Unique ID : 178853064714434205319756039824498407112 (0x868DD8E883CFFC57AC335043D502B6C8)
Complete name : F:\Release\Casino Jack (2010) 720p [ukr.eng] Hurtom.mkv
Format : Matroska
Format version : Version 4 / Version 2
File size : 2.84 GiB
Duration : 1h 48mn
Overall bit rate : 3 747 Kbps
Encoded date : UTC 2013-07-10 20:05:05
Writing application : mkvmerge v6.2.0 ('Promised Land') built on Apr 28 2013 12:22:01
Writing library : libebml v1.3.0 + libmatroska v1.4.0

Video
ID : 1
Format : AVC
Format/Info : Advanced Video Codec
Format profile : [email protected]
Format settings, CABAC : Yes
Format settings, ReFrames : 8 frames
Codec ID : V_MPEG4/ISO/AVC
Duration : 1h 48mn
Bit rate : 2 904 Kbps
Width : 1 280 pixels
Height : 544 pixels
Display aspect ratio : 2.35:1
Frame rate mode : Constant
Frame rate : 23.976 fps
Color space : YUV
Chroma subsampling : 4:2:0
Bit depth : 8 bits
Scan type : Progressive
Bits/(Pixel*Frame) : 0.174
Stream size : 2.20 GiB (78%)
Writing library : core 133 r2334 a3ac64b
Encoding settings : cabac=1 / ref=8 / deblock=1:1:-3 / analyse=0x3:0x113 / me=umh / subme=10 / psy=1 / psy_rd=1.00:0.00 / mixed_ref=1 / me_range=24 / chroma_me=1 / trellis=2 / 8x8dct=1 / cqm=0 / deadzone=21,11 / fast_pskip=1 / chroma_qp_offset=-5 / threads=6 / lookahead_threads=1 / sliced_threads=0 / nr=0 / decimate=1 / interlaced=0 / bluray_compat=0 / constrained_intra=0 / bframes=3 / b_pyramid=2 / b_adapt=2 / b_bias=0 / direct=1 / weightb=1 / open_gop=0 / weightp=2 / keyint=240 / keyint_min=23 / scenecut=40 / intra_refresh=0 / rc_lookahead=40 / rc=crf / mbtree=1 / crf=17.0 / qcomp=0.60 / qpmin=0 / qpmax=69 / qpstep=4 / vbv_maxrate=24000 / vbv_bufsize=24000 / crf_max=0.0 / nal_hrd=none / ip_ratio=1.40 / aq=1:1.00
Language : English
Default : Yes
Forced : No

Audio #1
ID : 2
Format : AC-3
Format/Info : Audio Coding 3
Mode extension : CM (complete main)
Format settings, Endianness : Big
Codec ID : A_AC3
Duration : 1h 48mn
Bit rate mode : Constant
Bit rate : 384 Kbps
Channel(s) : 6 channels
Channel positions : Front: L C R, Side: L R, LFE
Sampling rate : 48.0 KHz
Bit depth : 16 bits
Compression mode : Lossy
Stream size : 298 MiB (10%)
Title : UKR for Hurtom.com [HTH]
Language : Ukrainian
Default : Yes
Forced : No

Audio #2
ID : 3
Format : AC-3
Format/Info : Audio Coding 3
Mode extension : CM (complete main)
Format settings, Endianness : Big
Codec ID : A_AC3
Duration : 1h 48mn
Bit rate mode : Constant
Bit rate : 384 Kbps
Channel(s) : 6 channels
Channel positions : Front: L C R, Side: L R, LFE
Sampling rate : 48.0 KHz
Bit depth : 16 bits
Compression mode : Lossy
Stream size : 298 MiB (10%)
Language : English
Default : No
Forced : No

Text
ID : 4
Format : UTF-8
Codec ID : S_TEXT/UTF8
Codec ID/Info : UTF-8 Plain Text
Language : English
Default : No
Forced : No
Скріншоти









Джерело:


 Трекер:    Зареєстрований   

Завантажити / скачати фільм українською



відео для новачків



 Зареєстрований:   2013-07-10 22:29
 Розмір:   2.84 GB 
 Оцінка фільму:   9.4/10 (Голосів: 7)
   
Інші релізи
   Казино Джек / Casino Jack (2010) Ukr/Eng bodia87  3 / 0   2.09 GB   2013-07-10 13:44 
   Казино Джек / Casino Jack (2010) AVC Ukr/Eng | sub Eng bodia87  1 / 0   1.21 GB   2013-07-10 13:44 
waldi-hurtom 
VIP


З нами з: 07.10.12
Востаннє: 05.12.16
Повідомлень: 611

2013-08-12 19:06  
Передивився вдруге цей фільм через Кевіна Спейсі. Після першого перегляду майже забув цей фільм. Мабуть, попрацювала підсвідомість. Не дуже допоміг Кевін Спейсі. 6 з 10. Одного перегляду більш ніж достатньо, навіть якщо й забув, про що цей фільм. Якби опис в одне речення не був скалькований з інету, але розширений згадкою про індіанські казино, я б пригадав цей фільм і не став скачувати та дивитись.
Ваш часовий пояс: GMT + 2 Години

Нова тема   Відповісти