Завантажити та скачати торренти українською


О, щасливчик ! / O Lucky Man! (1973) AVC Ukr/Eng

Нові коментарі

Нова тема   Відповісти
Автор Повідомлення
bodia87 
Відео Гуртом - фільмокрай
Відео Гуртом - фільмокрай


З нами з: 24.01.09
Востаннє: 03.12.16
Повідомлень: 468

2013-07-10 20:57  
О, щасливчик ! / O Lucky Man! (1973) AVC Ukr/Eng

О, щасливчик ! / O Lucky Man! (1973) AVC Ukr/Eng


Жанр: комедія, драма, фентезі
Країна: Великобританія, США


Кінокомпанія: Memorial Enterprises
Режисер: Ліндсей Андерсон
Актори: Малкольм МакДауелл, Ральф Річардсон, Рейчел Робертс, Артур Лоу, Хелен Міррен, Грем Кроуден, Пітер Джефрі, Денді Ніколс

Сюжет:
Молодий англієць Майкл Тревіс - поки ще не джентльмен шукає себе у цьому "божевільному, божевільному, божевільному світі!". Як приємно почати свій шлях у бізнес із запасів кави, особистого автомобіля, блискучого костюма з голочки і - майже весь світ у тебе в кишені! Але далі починається життєва дорога в прямому і переносному сенсі.
Джентльменський набір кіногероя: кар'єра, надія, обман, подорож, катастрофа, любов, музика, знову обман... І єдина вдача, яка обов'язково прийде, якщо завжди залишатися самим собою!


Тривалість: 02:58:08
Якість:
Відео:
кодек:
розмір кадру: 720 х 476
бітрейт: 1758 кб/с

Аудіо # 1:
мова: українська
переклад: багатоголосий закадровий
кодек: 2.0
бітрейт: 192 кб/с

Аудіо # 2:
мова: англійська
переклад: оригінал
кодек: 2.0
бітрейт: 192 кб/с

Скріншоти











Джерело: &


Срібний реліз (на рейтинг впливає 50% завантаженого)
 Трекер:    Зареєстрований   

Завантажити / скачати фільм українською



відео для новачків



 Зареєстрований:   2013-07-10 20:57
 Розмір:   2.67 GB 
 Оцінка фільму:   10/10 (Голосів: 8)
   
Інші релізи
chuvak_9404 
Поважний учасник


З нами з: 16.08.12
Востаннє: 01.12.16
Повідомлень: 182

2013-07-10 21:12  
То точно AVC?
bodia87 
Відео Гуртом - фільмокрай
Відео Гуртом - фільмокрай


З нами з: 24.01.09
Востаннє: 03.12.16
Повідомлень: 468

2013-07-10 21:19  
chuvak_9404 написано:
То точно AVC?


Точно !
General
Unique ID : 230096449383870252961873595093077888842 (0xAD1AF6D595EA85EEA27927F4D2528F4A)
Complete name : F:\Release\O Lucky Man! (1973) AVC [ukr.eng] Hurtom.mkv
Format : Matroska
Format version : Version 4 / Version 2
File size : 2.67 GiB
Duration : 2h 58mn
Overall bit rate : 2 144 Kbps
Encoded date : UTC 2013-07-10 18:45:22
Writing application : mkvmerge v6.2.0 ('Promised Land') built on Apr 28 2013 12:22:01
Writing library : libebml v1.3.0 + libmatroska v1.4.0

Video
ID : 1
Format : AVC
Format/Info : Advanced Video Codec
Format profile : [email protected]
Format settings, CABAC : Yes
Format settings, ReFrames : 10 frames
Codec ID : V_MPEG4/ISO/AVC
Duration : 2h 58mn
Bit rate : 1 758 Kbps
Width : 720 pixels
Height : 476 pixels
Display aspect ratio : 16:9
Original display aspect ratio : 3:2
Frame rate mode : Constant
Frame rate : 29.970 fps
Color space : YUV
Chroma subsampling : 4:2:0
Bit depth : 8 bits
Scan type : Progressive
Bits/(Pixel*Frame) : 0.171
Stream size : 2.14 GiB (80%)
Writing library : core 78 r1310kMod ec46ace
Encoding settings : cabac=1 / ref=10 / deblock=1:-2:-1 / analyse=0x3:0x113 / me=umh / subme=10 / psy=1 / psy_rd=1.0:0.2 / mixed_ref=1 / me_range=32 / chroma_me=1 / trellis=2 / 8x8dct=1 / cqm=0 / deadzone=21,11 / chroma_qp_offset=-3 / threads=6 / nr=0 / decimate=1 / mbaff=0 / constrained_intra=0 / bframes=7 / b_pyramid=0 / b_adapt=2 / b_bias=0 / direct=3 / wpredb=1 / keyint=250 / keyint_min=25 / scenecut=45 / rc_lookahead=40 / rc=2pass / mbtree=1 / bitrate=1758 / ratetol=1.0 / qcomp=0.65 / qpmin=10 / qpmax=51 / qpstep=4 / cplxblur=20.0 / qblur=0.5 / vbv_maxrate=50000 / vbv_bufsize=62500 / ip_ratio=1.40 / aq=2:1.00:1.00
Language : English
Default : Yes
Forced : No
Matrix coefficients : BT.709

Audio #1
ID : 2
Format : AC-3
Format/Info : Audio Coding 3
Mode extension : CM (complete main)
Format settings, Endianness : Big
Codec ID : A_AC3
Duration : 2h 58mn
Bit rate mode : Constant
Bit rate : 192 Kbps
Channel(s) : 2 channels
Channel positions : Front: L R
Sampling rate : 48.0 KHz
Bit depth : 16 bits
Compression mode : Lossy
Delay relative to video : 20ms
Stream size : 245 MiB (9%)
Title : Ukr for Hurtom.com [INTER]
Language : Ukrainian
Default : Yes
Forced : No

Audio #2
ID : 3
Format : AC-3
Format/Info : Audio Coding 3
Mode extension : CM (complete main)
Format settings, Endianness : Big
Codec ID : A_AC3
Duration : 2h 58mn
Bit rate mode : Constant
Bit rate : 192 Kbps
Channel(s) : 2 channels
Channel positions : Front: L R
Sampling rate : 48.0 KHz
Bit depth : 16 bits
Compression mode : Lossy
Delay relative to video : 20ms
Stream size : 245 MiB (9%)
Language : English
Default : No
Forced : No

Tanat13 
Відео Гуртом - запис з ТБ
Відео Гуртом - запис з ТБ


З нами з: 21.03.08
Востаннє: 03.12.16
Повідомлень: 780

2013-07-11 08:59  
Є ще озвучка від каналу "КІНО" (той що зараз 2+2)
ProgBassing 
Відео Гуртом - фільмокрай
Відео Гуртом - фільмокрай


З нами з: 08.03.08
Востаннє: 03.12.16
Повідомлень: 607

2014-01-30 18:42  
Люди, це ж арт-арт-арт-хауз!!! Що воно це кіно робить серед "простих смертних" фільмів???

Хотілося б почути як КІНО озвучили цей фільм, бо ІНТЕР - це тупо відстій :s ...і вміють же ж деякі пасажири ненавидіти все українське - це яскравий приклад того коли озвучка робиться з примусу, а не від чистого серця і любові до свого, до справжнього!

Ваш часовий пояс: GMT + 2 Години

Нова тема   Відповісти