Завантажити та скачати торренти українською


Мрійник / Dreamer: Inspired by a True Story (2005) 720p Ukr/Eng | sub Eng

Нові коментарі

Нова тема   Відповісти
Автор Повідомлення
bodia87 
Відео Гуртом - фільмокрай
Відео Гуртом - фільмокрай


З нами з: 24.01.09
Востаннє: 08.12.16
Повідомлень: 468

2013-07-10 09:01  
Мрійник / Dreamer: Inspired by a True Story (2005) 720p Ukr/Eng | sub Eng

Мрійник / Dreamer: Inspired by a True Story (2005) 720p Ukr/Eng | sub Eng


Жанр: драма, сімейний, спорт
Країна: США



Кінокомпанія:
Режисер: Джон Гетінс / John Gatins
Актори: Курт Рассел, Дакота Феннінг, Кріс Крістофферсон, Елізабет Шу, Девід Морс, Фредді Родрігес, Луїс Гузман, Одед Фер, Кен Ховард, Холмс Осборн

Сюжет:
Фільм заснований на реальних подіях. Батько і дочка - дві самотні душі, що живуть під одним дахом. Не дивлячись на глибоку прихильність, насправді вони дуже далекі від взаєморозуміння.

Але все міняється, коли маленька Кейл просить батька вилікувати улюбленого коня. Це стає точкою відліку в новій історії любові і прихильності, нового життя нової сім'ї і справжньої дружби.


Тривалість: 01:45:09
Якість:
Відео:
кодек:
розмір кадру: 1280 х 528
бітрейт: 3153 кб/с

Аудіо # 1: трансляція
мова: українська
переклад: багатоголосий закадровий
кодек: 5.1
бітрейт: 448 кб/с

Аудіо # 2:
мова: англійська
переклад: оригінал
кодек: 5.1
бітрейт: 448 кб/с

Субтитри:
мова: англійська
тип: програмні (м'які)
формат: *.srt
MediaInfo
General
Unique ID : 230773322969300211917306931426792492370 (0xAD9D534755B370D3A6D4B7581372CD52)
Complete name : F:\Release\Dreamer. Inspired by a True Story (2005) 720p [ukr.eng] Hurtom.mkv
Format : Matroska
Format version : Version 4 / Version 2
File size : 3.03 GiB
Duration : 1h 45mn
Overall bit rate : 4 132 Kbps
Encoded date : UTC 2013-07-09 06:00:49
Writing application : mkvmerge v6.2.0 ('Promised Land') built on Apr 28 2013 12:22:01
Writing library : libebml v1.3.0 + libmatroska v1.4.0

Video
ID : 1
Format : AVC
Format/Info : Advanced Video Codec
Format profile : [email protected]
Format settings, CABAC : Yes
Format settings, ReFrames : 8 frames
Codec ID : V_MPEG4/ISO/AVC
Duration : 1h 45mn
Bit rate : 3 153 Kbps
Width : 1 280 pixels
Height : 528 pixels
Display aspect ratio : 2.40:1
Frame rate mode : Constant
Frame rate : 24.000 fps
Color space : YUV
Chroma subsampling : 4:2:0
Bit depth : 8 bits
Scan type : Progressive
Bits/(Pixel*Frame) : 0.194
Stream size : 2.32 GiB (76%)
Writing library : core 133 r2334 a3ac64b
Encoding settings : cabac=1 / ref=8 / deblock=1:1:-3 / analyse=0x3:0x113 / me=umh / subme=10 / psy=1 / psy_rd=1.00:0.00 / mixed_ref=1 / me_range=24 / chroma_me=1 / trellis=2 / 8x8dct=1 / cqm=0 / deadzone=21,11 / fast_pskip=1 / chroma_qp_offset=-5 / threads=6 / lookahead_threads=1 / sliced_threads=0 / nr=0 / decimate=1 / interlaced=0 / bluray_compat=0 / constrained_intra=0 / bframes=3 / b_pyramid=2 / b_adapt=2 / b_bias=0 / direct=1 / weightb=1 / open_gop=0 / weightp=2 / keyint=240 / keyint_min=24 / scenecut=40 / intra_refresh=0 / rc_lookahead=40 / rc=crf / mbtree=1 / crf=18.0 / qcomp=0.60 / qpmin=0 / qpmax=69 / qpstep=4 / vbv_maxrate=24000 / vbv_bufsize=24000 / crf_max=0.0 / nal_hrd=none / ip_ratio=1.40 / aq=1:1.00
Language : English
Default : Yes
Forced : No

Audio #1
ID : 2
Format : AC-3
Format/Info : Audio Coding 3
Mode extension : CM (complete main)
Format settings, Endianness : Big
Codec ID : A_AC3
Duration : 1h 45mn
Bit rate mode : Constant
Bit rate : 448 Kbps
Channel(s) : 6 channels
Channel positions : Front: L C R, Side: L R, LFE
Sampling rate : 48.0 KHz
Bit depth : 16 bits
Compression mode : Lossy
Stream size : 337 MiB (11%)
Title : UKR for Hurtom.com (TTP, NTA)
Language : Ukrainian
Default : Yes
Forced : No

Audio #2
ID : 3
Format : AC-3
Format/Info : Audio Coding 3
Mode extension : CM (complete main)
Format settings, Endianness : Big
Codec ID : A_AC3
Duration : 1h 45mn
Bit rate mode : Constant
Bit rate : 448 Kbps
Channel(s) : 6 channels
Channel positions : Front: L C R, Side: L R, LFE
Sampling rate : 48.0 KHz
Bit depth : 16 bits
Compression mode : Lossy
Stream size : 337 MiB (11%)
Language : English
Default : No
Forced : No

Text
ID : 4
Format : UTF-8
Codec ID : S_TEXT/UTF8
Codec ID/Info : UTF-8 Plain Text
Language : English
Default : No
Forced : No
Скріншоти











Українська доріжка отримана, шляхом накладання фраз озвучення на центральний канал оригінальної доріжки.

Джерело:
Особиста оцінка: 8 - мені сподобалося


 Трекер:    Зареєстрований   

Завантажити / скачати фільм українською



відео для новачків



 Зареєстрований:   2013-07-10 09:01
 Розмір:   3.03 GB 
 Оцінка фільму:   9.6/10 (Голосів: 7)
   
Інші релізи
Ваш часовий пояс: GMT + 2 Години

Нова тема   Відповісти