Завантажити та скачати торренти українською


Годзилла / Godzilla (1998) 1080p Ukr/Eng

Нові коментарі

Нова тема   Відповісти
Автор Повідомлення
Anonymous 







2013-07-08 00:13  
Годзилла / Godzilla (1998) 1080p Ukr/Eng



Альтернативні українські постери




Жанр: фантастика, бойовик, трилер
Країна: США, Японія



Кінокомпанія: Centropolis Film Productions, Fried Films, Independent Pictures (II), Toho Film (Eiga) Co. Ltd., TriStar Pictures
Режисер: Роланд Еммеріх / Roland Emmerich
Актори: Меттью Бродерік / Matthew Broderick, Жан Рено / Jean Reno, Марія Пітілло / Maria Pitillo, Хенк Азарія / Hank Azaria, Кевін Данн / Kevin Dunn, Майкл Лернер / Michael Lerner та інші.

Сюжет:
З тихоокеанських джунглів на Нью-Йорк насувається страшна катастрофа. На очах у приголомшених жителів руйнуються хмарочоси, перевертаються автобуси, йдуть під землю цілі квартали. Але це не ураган і не землетрус. Це — Годзилла, найжахливіше чудовисько в історії.

Для неї людська цивілізація — лише жалюгідний мурашник, будинки — сірникові коробки, вертольоти — настирливі бабки. Мегаполісу загрожує повне знищення. Армія, оснащена за останнім словом техніки, не в змозі протистояти гігантській ящірці. Невеликій групі сміливців належить з'ясувати, навіщо Годзилла прийшла в Нью-Йорк. Можливо, тоді їм пощастить врятувати місто.


рейтинг MPAA: PG-13 - дітям до 13 років перегляд не бажаний
Вікова категорія: 12+

Тривалість: 02:18:43
Якість: 1080p
Відео:
кодек:
розмір кадру: 1920x800
бітрейт: 6920 кб/с

Аудіо # 1:
мова: українська
переклад: багатоголосий закадровий - Так Треба Продакшн
кодек: 5.1
бітрейт: 448 кб/с

Аудіо # 2:
мова: англійська
переклад: оригінал
кодек: 5.1
бітрейт: 642 кб/с

Збережено оригінальні розділи, як на Blu-ray.
MediaInfo
General
Unique ID : 189332142272823620629773373460951041631 (0x8E700B52409B3A57AA1CDE10BDE7865F)
Complete name : Godzilla.1998..1080p.Ukr.Eng.mkv
Format : Matroska
Format version : Version 4 / Version 2
File size : 7.75 GiB
Duration : 2h 18mn
Overall bit rate : 7 997 Kbps
Movie name : Годзилла / Godzilla (1998)
Encoded date : UTC 2013-07-07 21:09:17
Writing application : mkvmerge v6.3.0 ('You can't stop me!') built on Jun 28 2013 20:09:41
Writing library : libebml v1.3.0 + libmatroska v1.4.0

Video
ID : 1
Format : AVC
Format/Info : Advanced Video Codec
Format profile : [email protected]
Format settings, CABAC : Yes
Format settings, ReFrames : 5 frames
Codec ID : V_MPEG4/ISO/AVC
Duration : 2h 18mn
Bit rate : 6 920 Kbps
Width : 1 920 pixels
Height : 800 pixels
Display aspect ratio : 2.40:1
Frame rate mode : Constant
Frame rate : 23.976 fps
Color space : YUV
Chroma subsampling : 4:2:0
Bit depth : 8 bits
Scan type : Progressive
Bits/(Pixel*Frame) : 0.188
Stream size : 6.54 GiB (84%)
Title : Годзилла / Godzilla (1998) [NoLimits-Team]
Writing library : core 133 r2334 a3ac64b
Encoding settings : cabac=1 / ref=5 / deblock=1:-1:-1 / analyse=0x3:0x113 / me=umh / subme=11 / psy=1 / psy_rd=1.00:0.00 / mixed_ref=1 / me_range=64 / chroma_me=1 / trellis=2 / 8x8dct=1 / cqm=0 / deadzone=21,11 / fast_pskip=0 / chroma_qp_offset=-2 / threads=9 / lookahead_threads=2 / sliced_threads=0 / nr=0 / decimate=1 / interlaced=0 / bluray_compat=0 / constrained_intra=0 / bframes=12 / b_pyramid=2 / b_adapt=2 / b_bias=0 / direct=3 / weightb=1 / open_gop=0 / weightp=2 / keyint=240 / keyint_min=23 / scenecut=40 / intra_refresh=0 / rc_lookahead=60 / rc=2pass / mbtree=1 / bitrate=6920 / ratetol=2.0 / qcomp=0.60 / qpmin=0 / qpmax=51 / qpstep=4 / cplxblur=20.0 / qblur=0.5 / ip_ratio=1.40 / aq=1:1.00
Language : English
Default : Yes
Forced : No

Audio #1
ID : 2
Format : AC-3
Format/Info : Audio Coding 3
Mode extension : CM (complete main)
Format settings, Endianness : Big
Codec ID : A_AC3
Duration : 2h 18mn
Bit rate mode : Constant
Bit rate : 448 Kbps
Channel(s) : 6 channels
Channel positions : Front: L C R, Side: L R, LFE
Sampling rate : 48.0 KHz
Bit depth : 16 bits
Compression mode : Lossy
Stream size : 445 MiB (6%)
Title : MVO [TakTrebaProduction-K1] 5.1 448 Kbps [Hurtom-robotron005]
Language : Ukrainian
Default : Yes
Forced : No

Audio #2
ID : 3
Format : AC-3
Format/Info : Audio Coding 3
Mode extension : CM (complete main)
Format settings, Endianness : Big
Codec ID : A_AC3
Duration : 2h 18mn
Bit rate mode : Constant
Bit rate : 640 Kbps
Channel(s) : 6 channels
Channel positions : Front: L C R, Side: L R, LFE
Sampling rate : 48.0 KHz
Bit depth : 16 bits
Compression mode : Lossy
Stream size : 635 MiB (8%)
Title : Original
Language : English
Default : No
Forced : No

Menu
00:00:00.000 : :Chapter 01
00:07:48.426 : :Chapter 02
00:17:25.461 : :Chapter 03
00:25:28.235 : :Chapter 04
00:36:53.836 : :Chapter 05
00:41:48.214 : :Chapter 06
00:48:19.730 : :Chapter 07
01:01:35.942 : :Chapter 08
01:11:06.095 : :Chapter 09
01:21:38.685 : :Chapter 10
01:30:26.212 : :Chapter 11
01:39:14.156 : :Chapter 12
01:50:24.159 : :Chapter 13
01:52:28.658 : :Chapter 14
02:00:36.771 : :Chapter 15
02:05:56.882 : :Chapter 16


Джерела та подяки: ріп відео та оригінальний звук - envy. (NoLimits-Team); українська доріжка - robotron005 - зведення, SweetN - запис з ТБ; українські постери - hellforces, bilenkuyboy (всі - Гуртом).

Особиста оцінка: 8 - мені сподобалося

ЗАЛИШАЙТЕСЬ ЯКОМОГА ДОВШЕ НА РОЗДАЧІ!

СКАЧАВ САМ - ДАЙ СКАЧАТИ ІНШИМ


Срібний реліз (на рейтинг впливає 50% завантаженого)
 Трекер:    Зареєстрований   

Завантажити / скачати фільм українською



відео для новачків



 Зареєстрований:   2013-07-08 00:13
 Розмір:   7.75 GB 
 Оцінка фільму:   5.3/10 (Голосів: 19)
   
Інші релізи
   Годзилла / Godzilla (1998) Ukr/Eng robotron005  5 / 0   2.9 GB   2009-11-26 22:53 
Anonymous 







2013-07-08 00:32  
del
Ivan_007 
Поважний учасник


З нами з: 08.08.11
Востаннє: 05.12.16
Повідомлень: 242

2013-07-08 06:30  
Я знаю, що китайці бояться годзилу
Ваш часовий пояс: GMT + 2 Години

Нова тема   Відповісти