Завантажити та скачати торренти українською


Вперед і вгору / Up (2009) AVC

Нові коментарі

Нова тема   Відповісти
Автор Повідомлення
Drool 
VIP


З нами з: 17.04.10
Востаннє: 07.12.16
Повідомлень: 1266

2013-07-07 00:35  
Вперед і вгору / Up (2009) AVC

Жанр: комедія, драма, пригоди, сімейний, мультфільм
Країна: США



Кінокомпанія: Walt Disney Pictures, Pixar Animation Studios; мейджор - Buena Vista Sony Pictures Releasing (BVSPR)
Режисер: Піт Доктер, Боб Петерсон
Ролі озвучують: Едвард Аснер, Крістофер Пламмер, Джордан Наґаї, Боб Петерсон, Делрой Ліндо

Сюжет:
78-річний Карл Фредріксен вирішив здійснити мрію усього свого життя – прив’язати до свого будинку тисячі повітряних кульок і полетіти у подорож. Але невдовзі він розуміє, що його випадковим супутником став восьмирічний бойскаут Рассел.

Продюсер Джон Лассетер пишається тим фактом, що десятим фільмом студії “Піксар” став саме “Вперед і вгору”. Він вважає, що це найсмішніша стрічка з-поміж тих, які створювала ця кінокомпанія, і одна з найбільш видовищних. Волт Дісней часто казав, що для кожної посмішки потрібна сльозинка. Саме цим керувались автори картини, показуючи кохання Карла та його покійної дружини і дружбу між Карлом та Расселом.

Дев’ятирічний Джордан Нагай подарував свій голос Расселу. Виконроб на ім’я Том, який намагається переконати Карла продати будинок, розмовляє голосом Джона Ратценбергера – єдиного актора, який озвучував персонажів у кожному мультфільмі “Піксар”.


Тривалість: 01:36:37
Якість:
Відео:
кодек:
розмір кадру: 1024x576
бітрейт: 1963 кб/с

Аудіо:
мова: українська
переклад: професійний дубльований
кодек: 5.1
бітрейт: 384 кб/с

Джерело озвучення:


Скріншоти








MediaInfo
General
Unique ID : 5445271306466879242347118395217037108 (0x418B89A6E90B2CE36C11E9B27D24734)
Complete name : /mnt/disk_d/Video/Мультфильмы/Up.2009.Ukr.Dub.AVC.mkv
Format : Matroska
File size : 1.62 GiB
Duration : 1h 36mn
Overall bit rate : 2 395 Kbps
Movie name : Вперед і вгору / Up (2009) AVC | leonardo 59
Encoded date : UTC 2013-07-06 06:39:48
Writing application : mkvmerge v4.8.0 ('I Got The...') built on Aug 22 2011 13:16:28
Writing library : libebml v1.2.0 + libmatroska v1.1.0

Video
ID : 1
Format : AVC
Format/Info : Advanced Video Codec
Format profile : [email protected]
Format settings, CABAC : Yes
Format settings, ReFrames : 11 frames
Codec ID : V_MPEG4/ISO/AVC
Duration : 1h 36mn
Bit rate : 1 963 Kbps
Width : 1 024 pixels
Height : 576 pixels
Display aspect ratio : 16:9
Frame rate mode : Variable
Frame rate : 23.810 fps
Color space : YUV
Chroma subsampling : 4:2:0
Bit depth : 8 bits
Scan type : Progressive
Bits/(Pixel*Frame) : 0.140
Stream size : 1.33 GiB (82%)
Title : Вперед і вгору / Up (2009) AVC | leonardo 59
Writing library : core 120
Encoding settings : cabac=1 / ref=11 / deblock=1:-1:-1 / analyse=0x3:0x113 / me=tesa / subme=11 / psy=1 / psy_rd=0.90:0.10 / mixed_ref=1 / me_range=32 / chroma_me=1 / trellis=2 / 8x8dct=1 / cqm=0 / deadzone=21,11 / fast_pskip=1 / chroma_qp_offset=-3 / threads=3 / sliced_threads=0 / nr=0 / decimate=1 / interlaced=0 / bluray_compat=0 / constrained_intra=0 / bframes=8 / b_pyramid=2 / b_adapt=2 / b_bias=0 / direct=1 / weightb=1 / open_gop=0 / weightp=2 / keyint=240 / keyint_min=24 / scenecut=40 / intra_refresh=0 / rc=crf / mbtree=0 / crf=18.0 / qcomp=0.70 / qpmin=3 / qpmax=69 / qpstep=4 / ip_ratio=1.30 / pb_ratio=1.20 / aq=2:0.90
Color primaries : BT.709-5, BT.1361, IEC 61966-2-4, SMPTE RP177
Transfer characteristics : BT.709-5, BT.1361
Matrix coefficients : BT.709-5, BT.1361, IEC 61966-2-4 709, SMPTE RP177

Audio
ID : 2
Format : AC-3
Format/Info : Audio Coding 3
Mode extension : CM (complete main)
Codec ID : A_AC3
Duration : 1h 36mn
Bit rate mode : Constant
Bit rate : 384 Kbps
Channel(s) : 6 channels
Channel positions : Front: L C R, Side: L R, LFE
Sampling rate : 48.0 KHz
Bit depth : 16 bits
Compression mode : Lossy
Stream size : 265 MiB (16%)
Title : Рідна мова (дубляж)
Language : Ukrainian
Походження: Відеоряд взято з ріпу
Особиста оцінка: 10 - без зайвих вагань рекомендую всім!


 Трекер:    Зареєстрований   

Завантажити / скачати мультфільм українською



відео для новачків



 Зареєстрований:   2013-07-07 00:35
 Розмір:   1.62 GB 
 Оцінка мультфільму:   9.9/10 (Голосів: 68)
   
Інші релізи
   Поцілуночок / Love at First Hiccup (2009) 720р Ukr/Eng kino.  0 / 0   3.54 GB   2015-06-25 07:06 
   Поцілуночок / Love at First Hiccup (2009) ТОЛЯН  0 / 0   1.29 GB   2013-03-27 20:25 
   Поцілуночок / Love at First Hiccup (2009) AVC Bohdan237  3 / 0   1.3 GB   2013-03-27 19:25 
   Вперед і вгору / Up (2009) 720p Ukr/Eng | Sub Ukr/Eng braveboy  8 / 0   4.36 GB   2013-03-24 16:38 
   Вперед і вгору / Up (2009) 1080p Ukr/Eng | Sub Ukr/Eng ratbol  8 / 0   7.82 GB   2012-02-13 18:05 
   Сенс життя / Growing Up (2009) Jmylia  6 / 0   254 MB   2010-08-26 09:47 
   Вперед і вгору / Up (2009) yaremko131  13 / 0   1.46 GB   2010-01-02 01:25 
   Вперед і вгору / Up (2009) Ukr/Eng Skiff  8 / 0   1.43 GB   2009-10-25 23:44 
747 
Свій


З нами з: 21.05.10
Востаннє: 06.12.16
Повідомлень: 120

2013-07-15 08:04  
Цитата:
Bit rate : 1 963 Kbps

а чому не робиш менший бітрейт, скажімо, так як хлопаки із озвучення (Омікрон), то ж справжій АВС...

Drool 
VIP


З нами з: 17.04.10
Востаннє: 07.12.16
Повідомлень: 1266

2013-07-16 22:04  
747 написано:
а чому не робиш менший бітрейт

Ви маєте на увазі ріпи з картинкою в 720 пікселів в ширину і вагою порядком 700 метрів? Я такі ріпи робив у розділі ріпів для мобільних пристроїв. Сказали, що такі ріпи не потрібні. А щодо даного релізу - раджу звернутися до автора ріпу, з якого я взяв відеоряд.

xz_SLIM_zx 
VIP


З нами з: 15.03.12
Востаннє: 27.11.16
Повідомлень: 346

2014-06-26 06:34  
Чудовий мультфільм. Його часто згадують через сумний початок, але далі починаються велесощі та пригоди, які у кожного викличуть широку усмішку і маленьке захоплення)) Думаю, усі ми знаємо, що Pixar поганого не зробить, а у співпраці з Діснеєм - тим більше. І цей мульт виключенням аж ніяк не став. Велике спасибі автору
10/10

Maters 
VIP


З нами з: 27.03.12
Востаннє: 07.12.16
Повідомлень: 1162

2016-01-15 00:02  
Добротний такий мультик ))
bmarynap 
Новенький


З нами з: 31.01.15
Востаннє: 05.12.16
Повідомлень: 8

2016-08-17 09:25  
Мультик - супер! І переклад гарний. Радує, що не чути зоасім англійської, я це особливо ціную.
Ваш часовий пояс: GMT + 2 Години

Нова тема   Відповісти