Завантажити та скачати торренти українською


Королівство / The Kingdom (2007) 1080p Ukr/Eng | Sub Eng

Нові коментарі

Нова тема   Відповісти
Автор Повідомлення
Anonymous 







2013-07-05 14:06  
Королівство / The Kingdom (2007) 1080p Ukr/Eng | Sub Eng



Жанр: бойовик, трилер, драма
Країна: США, Німеччина



Кінокомпанія: Universal Pictures, Relativity Media, Forward Pass
Режисер: Пітер Берг / Peter Berg
Актори: Джеймі Фокс / Jamie Foxx, Дженіфер Гарнер / Jennifer Garner, Джейсон Бейтман / Jason Bateman, Кріс Купер / Chris Cooper, Ашраф Бархом / Ashraf Barhom, Алі Суліман / Ali Suliman, Річард Дженкінс / Richard Jenkins, Денні Хьюстон / Danny Huston та інші

Сюжет:
Драматичний бойовик на тему конфлікту на Близькому Сході. У цей складний регіон відправляється команда з чотирьох агентів ФБР, щоб розслідувати теракт, що стався на американському об'єкті у цій країні, і знайти такого собі Абу Хамза, імовірно ватажка терористів.  Відразу стає зрозуміло, що місія буде не з легких. Однак американці знаходять спільну мову з представником місцевої поліції, який буде по можливості надавати команді допомогу у встановленні справедливості в цій чужій їм країні.


рейтинг MPAA: R - особам до 17 років обов'язкова присутність батьків або дорослого опікуна
Вікова категорія: 16+

Тривалість: 01:49:45
Якість: 1080p
Відео:
кодек:
розмір кадру: 1920x816
бітрейт: 8844 кб/с

Аудіо # 1:
мова: українська - Так Треба Продакшн, запис з
переклад: багатоголосий закадровий
Ролі озвучили: Юрій Ребрик (Джеймі Фокс / Ronald Fleury), Владислав Пупков (Кріс Купер / Grant Sykes), Роман Семисал і один жіночий
кодек: 5.1
бітрейт: 448 кб/с

Аудіо # 2:
мова: англійська
переклад: оригінал
кодек: 5.1
бітрейт: 640 кб/с

Субтитри:
мова: англійська
тип: програмні (м'які)
формат: *.srt

Збережено оригінальні розділи, як на Blu-ray.
MediaInfo
General
Unique ID : 197301210391559852025770307729150470892 (0x946ED4B6E4184485B952D10410046AEC)
Complete name : The.Kingdom.2007..1080p.Ukr.Eng.mkv
Format : Matroska
Format version : Version 4 / Version 2
File size : 7.61 GiB
Duration : 1h 49mn
Overall bit rate : 9 927 Kbps
Movie name : Королівство / The Kingdom / Королевство (2007)
Encoded date : UTC 2013-07-05 10:15:55
Writing application : mkvmerge v6.3.0 ('You can't stop me!') built on Jun 28 2013 20:09:41
Writing library : libebml v1.3.0 + libmatroska v1.4.0

Video
ID : 1
Format : AVC
Format/Info : Advanced Video Codec
Format profile : [email protected]
Format settings, CABAC : Yes
Format settings, ReFrames : 5 frames
Codec ID : V_MPEG4/ISO/AVC
Duration : 1h 49mn
Bit rate : 8 844 Kbps
Width : 1 920 pixels
Height : 816 pixels
Display aspect ratio : 2.35:1
Frame rate mode : Constant
Frame rate : 23.976 fps
Color space : YUV
Chroma subsampling : 4:2:0
Bit depth : 8 bits
Scan type : Progressive
Bits/(Pixel*Frame) : 0.235
Stream size : 6.63 GiB (87%)
Title : Королівство / The Kingdom / Королевство (2007) [Boriy]
Writing library : core 133 r2334 a3ac64b
Encoding settings : cabac=1 / ref=5 / deblock=1:0:0 / analyse=0x3:0x113 / me=umh / subme=11 / psy=1 / psy_rd=1.00:0.10 / mixed_ref=1 / me_range=32 / chroma_me=1 / trellis=2 / 8x8dct=1 / cqm=0 / deadzone=21,11 / fast_pskip=0 / chroma_qp_offset=-2 / threads=12 / lookahead_threads=1 / sliced_threads=0 / nr=0 / decimate=0 / interlaced=0 / bluray_compat=0 / constrained_intra=0 / bframes=5 / b_pyramid=2 / b_adapt=2 / b_bias=0 / direct=3 / weightb=1 / open_gop=0 / weightp=2 / keyint=240 / keyint_min=23 / scenecut=40 / intra_refresh=0 / rc=2pass / mbtree=0 / bitrate=8844 / ratetol=1.0 / qcomp=0.60 / qpmin=0 / qpmax=69 / qpstep=4 / cplxblur=20.0 / qblur=0.5 / ip_ratio=1.40 / pb_ratio=1.30 / aq=1:0.90
Language : English
Default : Yes
Forced : No

Audio #1
ID : 2
Format : AC-3
Format/Info : Audio Coding 3
Mode extension : CM (complete main)
Format settings, Endianness : Big
Codec ID : A_AC3
Duration : 1h 49mn
Bit rate mode : Constant
Bit rate : 448 Kbps
Channel(s) : 6 channels
Channel positions : Front: L C R, Side: L R, LFE
Sampling rate : 48.0 KHz
Bit depth : 16 bits
Compression mode : Lossy
Stream size : 352 MiB (5%)
Title : MVO [TakTrebaProduction-TRK Ukraina] 5.1 448 Kbps [Hurtom-Romario_O]
Language : Ukrainian
Default : Yes
Forced : No

Audio #2
ID : 3
Format : AC-3
Format/Info : Audio Coding 3
Mode extension : CM (complete main)
Format settings, Endianness : Big
Codec ID : A_AC3
Duration : 1h 49mn
Bit rate mode : Constant
Bit rate : 640 Kbps
Channel(s) : 6 channels
Channel positions : Front: L C R, Side: L R, LFE
Sampling rate : 48.0 KHz
Bit depth : 16 bits
Compression mode : Lossy
Stream size : 502 MiB (6%)
Title : Original
Language : English
Default : No
Forced : No

Text
ID : 4
Format : UTF-8
Codec ID : S_TEXT/UTF8
Codec ID/Info : UTF-8 Plain Text
Title : Eng full
Language : English
Default : No
Forced : No

Menu
00:00:00.000 : :Unholly Alliance (Main Titles)
00:03:53.483 : :Terrorist Attack
00:09:36.033 : :Coordinated Hit
00:14:39.253 : :Withholding Personnel
00:20:37.152 : :I Want in, Now
00:24:02.983 : :Check Yourself
00:29:39.110 : :On Saudi Soil
00:36:44.660 : :Meeting the Prince
00:40:25.172 : :Scene of the Crime
00:45:18.716 : :Looking for Clues
00:51:29.586 : :We Have Permission
00:55:59.898 : :Let Us Help You
00:59:49.711 : :Evidence Mounts
01:07:09.233 : :Chasing Ghosts
01:13:01.627 : :A Big Clue
01:18:37.170 : :On the Way Out
01:29:03.087 : :No Time for Backup
01:34:10.436 : :Got Him
01:38:42.750 : :Kill Them All
01:44:19.294 : :End Titles


Джерела та подяки: ріп відео, оригінальні звук та субтитри - boriy (рутор); українська доріжка - Romario_O український постер - Тирік (всі - Гуртом).

ЗАЛИШАЙТЕСЬ ЯКОМОГА ДОВШЕ НА РОЗДАЧІ!

СКАЧАВ САМ - ДАЙ СКАЧАТИ ІНШИМ


 Трекер:    Зареєстрований   

Завантажити / скачати фільм українською



відео для новачків



 Зареєстрований:   2013-07-05 14:06
 Розмір:   7.61 GB 
 Оцінка фільму:   5.3/10 (Голосів: 20)
   
Інші релізи
   Королівство / The Kingdom (2007) AVC Ukr/Eng | Sub Eng Загора  9 / 0   2.53 GB   2016-04-01 05:14 
   Королівство / The Kingdom (2007) 720p Ukr/Eng | Sub Eng Загора  5 / 0   4.07 GB   2016-04-01 05:11 
   Королівство / The Kingdom (2007) patriot2305  2 / 0   1.26 GB   2013-08-11 21:25 
   Королівство / The Kingdom (2007) Ukr/Eng | Sub Eng Romario_O  4 / 0   2.18 GB   2010-10-23 18:13 
waldi-hurtom 
VIP


З нами з: 07.10.12
Востаннє: 10.12.16
Повідомлень: 613

2013-07-07 15:57  
Непоганий бойовичок! Весь час тримає в напрузі. На 9 балів. Хоча зрозумло, сюжет фантастично ненауковий. Така стрілянина в Саудівській Аравії, Кабул відпочиває. Happy Дякую за реліз!
Ваш часовий пояс: GMT + 2 Години

Нова тема   Відповісти