Завантажити та скачати торренти українською


Снігові пси / Snow Dogs (2002) 720p 2xUkr/Eng | sub Eng

Нові коментарі

Нова тема   Відповісти
Останній раз роздавалося parubok4 (2016-12-09)
Автор Повідомлення
sergiyko 
Забанено
Забанено


З нами з: 17.06.08
Востаннє: 13.10.13
Повідомлень: 259

2013-07-02 23:04  
Снігові пси / Snow Dogs (2002) 720p 2xUkr/Eng | sub Eng

Снігові пси / Snow Dogs (2002) 720p 2xUkr/Eng | sub Eng


Жанр: комедія, пригодницький, сімейний
Країна: Канада, США



Кінокомпанія: Galapagos Productions, Kerner Entertainment Company, Walt Disney Pictures, Winterdance Productions Ltd.
Режисер: Браян Лейвант
Актори: К’юба Ґудінґ мол. / Cuba Gooding Jr., Джеймс Коберн / James Coburn, Джоанна Баколсо / Joanna Bacalso, Сіско / Sisqó, Нішель Ніколс / Nichelle Nichols, М. Еммет Волш / M. Emmet Walsh, Ґрем Ґрін / Graham Greene, Браян Дойл-Маррей / Brian Doyle-Murray, Жан Мішель Пер / Jean Michel Paré, Майкл Болтон / Michael Bolton та інші

Сюжет:
Усе наше життя наповнене різних сюрпризів! Один дантист на ім’я Тед з Флориди, не міг собі й уявити, що через кілька днів його розмірене життя перетвориться на цікаві пригоди. Він раптово дізнається, що він прийомна дитина, а справжня мати залишила йому у спадок їздових собак у Алясці. І тут все почалося...


Тривалість: 01:39:34
Якість:
Відео:
кодек:
розмір кадру: 1280x720
бітрейт: 4000 кб/с

Аудіо # 1:
мова: українська
переклад: багатоголосий закадровий
кодек: 2.0
бітрейт: 192 кб/с

Аудіо # 2:
мова: українська
переклад: багатоголосий закадровий
кодек: 2.0
бітрейт: 192 кб/с

Аудіо # 3:
мова: англійська
переклад: оригінал
кодек: 5.1
бітрейт: 768 кб/с

Субтитри:
мова: англійська
тип: програмні (м'які)
формат: *.srt
MediaInfo
General
Unique ID : 234998607173940521753807091544233514165 (0xB0CB15DFB1D071CEA406F95AE00694B5)
Complete name : F:\Torrent\Films\Snow.Dogs.2002.720р..2xUkr.Eng.mkv
Format : Matroska
Format version : Version 4 / Version 2
File size : 3.86 GiB
Duration : 1h 39mn
Overall bit rate : 5 544 Kbps
Movie name : Snow Dogs (2002)
Encoded date : UTC 2013-07-02 20:52:43
Writing application : mkvmerge v6.1.0 ('Old Devil') built on Mar 2 2013 14:32:37
Writing library : libebml v1.3.0 + libmatroska v1.4.0

Video
ID : 1
Format : AVC
Format/Info : Advanced Video Codec
Format profile : [email protected]
Format settings, CABAC : No
Format settings, ReFrames : 2 frames
Format settings, GOP : N=1
Codec ID : V_MPEG4/ISO/AVC
Duration : 1h 39mn
Bit rate : 3 911 Kbps
Width : 1 280 pixels
Height : 720 pixels
Display aspect ratio : 16:9
Frame rate mode : Constant
Frame rate : 23.976 fps
Color space : YUV
Chroma subsampling : 4:2:0
Bit depth : 8 bits
Scan type : Progressive
Bits/(Pixel*Frame) : 0.177
Stream size : 2.72 GiB (71%)
Language : English
Default : Yes
Forced : No
Color primaries : BT.709
Transfer characteristics : BT.709
Matrix coefficients : BT.709

Audio #1
ID : 2
Format : AC-3
Format/Info : Audio Coding 3
Mode extension : CM (complete main)
Format settings, Endianness : Big
Codec ID : A_AC3
Duration : 1h 39mn
Bit rate mode : Constant
Bit rate : 192 Kbps
Channel(s) : 2 channels
Channel positions : Front: L R
Sampling rate : 48.0 KHz
Bit depth : 16 bits
Compression mode : Lossy
Stream size : 137 MiB (3%)
Title : DD 2.0 @ 192 kbps – Багатоголосий закадровий (ICTV)
Language : Ukrainian
Default : Yes
Forced : No

Audio #2
ID : 3
Format : AC-3
Format/Info : Audio Coding 3
Mode extension : CM (complete main)
Format settings, Endianness : Big
Codec ID : A_AC3
Duration : 1h 39mn
Bit rate mode : Constant
Bit rate : 192 Kbps
Channel(s) : 2 channels
Channel positions : Front: L R
Sampling rate : 48.0 KHz
Bit depth : 16 bits
Compression mode : Lossy
Stream size : 137 MiB (3%)
Title : DD 2.0 @ 192 kbps – Багатоголосий закадровий (ТЕТ)
Language : Ukrainian
Default : No
Forced : No

Audio #3
ID : 4
Format :
Format/Info : Digital Theater Systems
Mode : 16
Format settings, Endianness : Big
Codec ID : A_DTS
Duration : 1h 39mn
Bit rate mode : Constant
Bit rate : 755 Kbps
Channel(s) : 6 channels
Channel positions : Front: L C R, Side: L R, LFE
Sampling rate : 48.0 KHz
Bit depth : 24 bits
Compression mode : Lossy
Stream size : 537 MiB (14%)
Title : 5.1 @ 768 kbps
Language : English
Default : No
Forced : No

Text
ID : 6
Format : UTF-8
Codec ID : S_TEXT/UTF8
Codec ID/Info : UTF-8 Plain Text
Language : English
Default : No
Forced : No

Menu
00:00:00.000 : en:1
00:04:09.000 : en:2
00:07:45.000 : en:3
00:12:13.000 : en:4
00:17:59.000 : en:5
00:23:22.000 : en:6
00:26:41.000 : en:7
00:35:49.000 : en:8
00:37:32.000 : en:9
00:40:26.000 : en:10
00:41:39.000 : en:11
00:45:24.000 : en:12
00:48:41.000 : en:13
00:52:05.000 : en:14
00:56:31.000 : en:15
00:59:35.000 : en:16
01:00:59.000 : en:17
01:04:16.000 : en:18
01:09:30.000 : en:19
01:11:56.000 : en:20
01:17:38.000 : en:21
01:22:42.000 : en:22
01:27:24.000 : en:23
01:32:54.000 : en:24
Скріншоти


Джерело:
Особиста оцінка: 10 - без зайвих вагань рекомендую всім!


 Трекер:    Зареєстрований   

Завантажити / скачати фільм українською



відео для новачків



 Зареєстрований:   2013-07-02 23:29
 Розмір:   3.59 GB 
 Оцінка фільму:   10/10 (Голосів: 12)
   
Інші релізи
   Снігові пси / Snow Dogs (2002) 2xUkr | sub Eng DеLight  3 / 0   1.46 GB   2013-07-02 15:32 
   Снігові пси / Snow Dogs (2002) Ukr/Eng rooster  2 / 0   1.71 GB   2011-02-14 18:15 
Ваш часовий пояс: GMT + 2 Години

Нова тема   Відповісти