Завантажити та скачати торренти українською


Лісоруб / The Woodsman (2004) 720р Ukr/Eng | sub Eng

Нові коментарі

Нова тема   Відповісти
Автор Повідомлення
bodia87 
Відео Гуртом - фільмокрай
Відео Гуртом - фільмокрай


З нами з: 24.01.09
Востаннє: 06.12.16
Повідомлень: 468

2013-07-02 21:02  
Лісоруб / The Woodsman (2004) 720р Ukr/Eng | sub Eng

Лісоруб / The Woodsman (2004) 720р Ukr/Eng | sub Eng


Жанр: драма
Країна: США



Кінокомпанія: Dash Films, Lee Daniels Entertainment, The Woodsman LLC
Режисер: Ніколь Кессел
Актори: Кевін Бейкон, Кіра Седжвік, Бенджамін Бретт, Девід Алан Грір, Клара Інфініті Деніелс, Лайам Деніелс, Карлос Леон, Джессіка Негл, Ханна Пілкс

Сюжет:
Після дванадцяти років у в'язниці, за спокушання малолітніх, Уолтер виходить на волю. Але чи був він насправді винний або засуджений помилково? Головний герой не вважає себе злочинцем. Але тепер він повинен довести це й людям, які зустріли його крижаною стіною відчуженості й ворожості. На довершення всього в місті завівся маніяк, а всіх його жертв записали на Уолтера. Єдиний шанс "відмитися" і одержати квиток у нормальне життя — впіймати справжнього збоченця...


Тривалість: 01:23:34
Якість:
Відео:
кодек:
розмір кадру: 1280 х 720
бітрейт: 7037 кб/с

Аудіо # 1:
мова: українська
переклад: багатоголосий закадровий
кодек: 5.1
бітрейт: 448 кб/с

Аудіо # 2:
мова: англійська
переклад: оригінал
кодек: 5.1
бітрейт: 448 кб/с

Субтитри:
мова: англійська
тип: програмні (м'які)
формат: *.srt
MediaInfo
General
Unique ID : 235586016320897272744774449254754378694 (0xB13C37617A1F619CA2ABA1D49BD363C6)
Complete name : C:\Woodsman_720p (1).mkv
Format : Matroska
Format version : Version 4 / Version 2
File size : 4.63 GiB
Duration : 1h 23mn
Overall bit rate : 7 935 Kbps
Movie name : Woodsman [hdtracker.ru]
Encoded date : UTC 2013-07-02 17:53:20
Writing application : mkvmerge v6.2.0 ('Promised Land') built on Apr 28 2013 12:22:01
Writing library : libebml v1.3.0 + libmatroska v1.4.0

Video
ID : 1
Format : AVC
Format/Info : Advanced Video Codec
Format profile : [email protected]
Format settings, CABAC : Yes
Format settings, ReFrames : 8 frames
Codec ID : V_MPEG4/ISO/AVC
Duration : 1h 23mn
Bit rate : 7 037 Kbps
Width : 1 280 pixels
Height : 720 pixels
Display aspect ratio : 16:9
Frame rate mode : Constant
Frame rate : 25.000 fps
Color space : YUV
Chroma subsampling : 4:2:0
Bit depth : 8 bits
Scan type : Progressive
Bits/(Pixel*Frame) : 0.305
Stream size : 4.02 GiB (87%)
Writing library : core 54 svn-620M
Encoding settings : cabac=1 / ref=5 / deblock=1:0:0 / analyse=0x3:0x133 / me=umh / subme=6 / brdo=1 / mixed_ref=1 / me_range=16 / chroma_me=1 / trellis=1 / 8x8dct=1 / cqm=2 / deadzone=21,11 / chroma_qp_offset=0 / threads=2 / nr=0 / decimate=1 / mbaff=0 / bframes=3 / b_pyramid=1 / b_adapt=1 / b_bias=0 / direct=1 / wpredb=1 / bime=1 / keyint=250 / keyint_min=25 / scenecut=40(pre) / rc=2pass / bitrate=7037 / ratetol=1.0 / rceq='blurCplx^(1-qComp)' / qcomp=0.60 / qpmin=10 / qpmax=51 / qpstep=4 / cplxblur=20.0 / qblur=0.5 / ip_ratio=1.40 / pb_ratio=1.30
Language : English
Default : Yes
Forced : No

Audio #1
ID : 2
Format : AC-3
Format/Info : Audio Coding 3
Mode extension : CM (complete main)
Format settings, Endianness : Big
Codec ID : A_AC3
Duration : 1h 23mn
Bit rate mode : Constant
Bit rate : 448 Kbps
Channel(s) : 6 channels
Channel positions : Front: L C R, Side: L R, LFE
Sampling rate : 48.0 KHz
Bit depth : 16 bits
Compression mode : Lossy
Stream size : 268 MiB (6%)
Title : Ukr for Hurtom.com [HTH]
Language : Ukrainian
Default : Yes
Forced : No

Audio #2
ID : 3
Format : AC-3
Format/Info : Audio Coding 3
Mode extension : CM (complete main)
Format settings, Endianness : Big
Codec ID : A_AC3
Duration : 1h 23mn
Bit rate mode : Constant
Bit rate : 448 Kbps
Channel(s) : 6 channels
Channel positions : Front: L C R, Side: L R, LFE
Sampling rate : 48.0 KHz
Bit depth : 16 bits
Compression mode : Lossy
Stream size : 268 MiB (6%)
Title : English
Language : English
Default : No
Forced : No

Text
ID : 4
Format : UTF-8
Codec ID : S_TEXT/UTF8
Codec ID/Info : UTF-8 Plain Text
Title : English
Language : English
Default : No
Forced : No
Скріншоти











Джерело: &
Особиста оцінка: 0 - не дивився


 Трекер:    Зареєстрований   

Завантажити / скачати фільм українською



відео для новачків



 Зареєстрований:   2013-07-02 21:02
 Розмір:   4.63 GB 
 Оцінка фільму:   9.2/10 (Голосів: 6)
   
Інші релізи
   Лісоруб / The Woodsman (2004) patriot2305  4 / 0   1.1 GB   2013-07-07 10:02 
   Лісоруб / The Woodsman (2004) AVC Ukr/Eng | sub Eng bodia87  2 / 0   1.16 GB   2013-07-02 19:27 
olyx 
Відео Гуртом - підтримка та поширення
Відео Гуртом - підтримка та поширення


З нами з: 25.01.10
Востаннє: 05.10.16
Повідомлень: 231

2013-07-02 21:19  
Хороший фільм...
waldi-hurtom 
VIP


З нами з: 07.10.12
Востаннє: 05.12.16
Повідомлень: 611

2013-07-05 15:12  
Дякую за чудовий фільм! 9 балів.
Gedet 
Відео Гуртом - субтитрування
Відео Гуртом - субтитрування


З нами з: 17.11.11
Востаннє: 06.12.16
Повідомлень: 1750

2013-07-05 17:23  
Волтер. Ви в Україні ніби живете.
orest_music 
Модератор програм


З нами з: 24.10.07
Востаннє: 03.12.16
Повідомлень: 1310

2013-07-30 23:25  
Якийсь дивний фільм. Якщо хтось зрозумів, поясніть мені за що він відсидів 12 років? Сам ж він казав, що "не кривдив їх".
slvhome 
Свій


З нами з: 03.04.08
Востаннє: 06.12.16
Повідомлень: 121

2013-10-14 21:22  
orest_music написано:
Якийсь дивний фільм. Якщо хтось зрозумів, поясніть мені за що він відсидів 12 років? Сам ж він казав, що "не кривдив їх".


Повністю підтримую. Як на мене, то я навіть не зрозумів, до чого ведеться в цьому фільмі. Дуже пошкодував, що затратив на нього свій час.
Кому сподобалось, відпишіть, будь ласка, чим саме.

ProgBassing 
Відео Гуртом - фільмокрай
Відео Гуртом - фільмокрай


З нами з: 08.03.08
Востаннє: 06.12.16
Повідомлень: 607

2014-02-12 09:23  
slvhome написано:
Кому сподобалось, відпишіть, будь ласка, чим саме.


Ну типу сигнал всім збоченьцям, що змінитися можна і треба, варто лиш знайти те заради чого бідуть ті подальші зміни. А відсидів 12 бо, можливо, засудили... Зате Кіра Седжвік просто ляля Wink (1)

Переклад як завжди препаскудний з мерзенними російсько-акцентованими голосами у якості бонуса... вже вкотре дивився англійською :/

Ваш часовий пояс: GMT + 2 Години

Нова тема   Відповісти