Завантажити та скачати торренти українською


ДахаБраха | Дискографія (4 альбоми) (2006—2010) [FLAC] | EthnoChaos / World-music

Нові коментарі

Нова тема   Відповісти
Сторінка:  1, 2  наступна
Автор Повідомлення
jinotot 
Почесний оцифрувальник літератури


З нами з: 28.01.09
Востаннє: 04.12.16
Повідомлень: 3235

2009-04-13 22:59  
ДахаБраха | Дискографія (4 альбоми) (2006—2010) [FLAC] | EthnoChaos / World-music

Альтернативна обкладинка
Стиль: Folk, Ethno, World-music, EthnoChaos
Країна, місто: Україна, Київ
Сайти: Офіційний сайт
Видавець: Атлантік, UkrMusic, гурт, Shugar Studio
Виконавці:

гурт "ДахаБраха":
- Ірина Коваленко — вокал, джамбе, перкусія, басовий барабан, жалійка, волинка, флейта, бугай, аккордеон
- Марко Галаневич — вокал, дарбука, табла, діджеріду, тромбон, аккордеон
- Олена Цибульська — вокал, перкусія, басовий барабан, гармошка
- Ніна Гаренецька — вокал, віолончель, басовий барабан
а також...
- Владислав Троїцький — автор проекту
- Ірина Горбань — арт-менеджер
крім того...
- Олександра Гарбузова / Клейніс — екс-учасниця гурту ("На добраніч", "Ягудки")
АЛЬБОМИ:
2006 — На добраніч
Пісні:
    01 - На добраніч 805 кб/с
    02 - За дуби 1 039 кб/с
    03 - У Києві 808 кб/с
    04 - Русалочки 1 033 кб/с
    05 - Івана Купала 896 кб/с
    06 - Пані 903 кб/с
    07 - П’яний Арт 799 кб/с
    08 - Свашеньки 933 кб/с
    09 - Африка 794 кб/с
    10 - Козак 862 кб/с
    11 - Вдова 767 кб/с
    12 - Дощ 903 кб/с
    13 - Веснянки Чілаут 949 кб/с
    14 - Конопля 1 045 кб/с
    15 - Татарин-братко 889 кб/с
    16 - До ста літ 1 035 кб/с
    17 - Реп 1 021 кб/с
    18 - Єлена 855 кб/с
Тривалість: 01:18:07
Мова: українська (різні діалекти та говірки)
Видавець: Атлантік
log-file
Exact Audio Copy V0.99 prebeta 5 from 4. May 2009

EAC extraction logfile from 1. February 2011, 0:21

ДахаБраха / На добраніч

Used drive : ASUS DRW-20B1S Adapter: 3 ID: 0

Read mode : Secure
Utilize accurate stream : Yes
Defeat audio cache : Yes
Make use of C2 pointers : No

Read offset correction : 6
Overread into Lead-In and Lead-Out : No
Fill up missing offset samples with silence : Yes
Delete leading and trailing silent blocks : No
Null samples used in CRC calculations : Yes
Used interface : Installed external ASPI interface
Gap handling : Appended to previous track

Used output format : User Defined Encoder
Selected bitrate : 1024 kBit/s
Quality : High
Add ID3 tag : No
Command line compressor : C:\Program Files\Exact Audio Copy\Flac\flac.exe
Additional command line options : -8 -V -T "ARTIST=%a" -T "TITLE=%t" -T "ALBUM=%g" -T "DATE=%y" -T "TRACKNUMBER=%n" -T "GENRE=%m" -T "COMMENT=EAC FLAC -8" %s

TOC of the extracted CD

Track | Start | Length | Start sector | End sector
---------------------------------------------------------
1 | 0:00.00 | 4:47.68 | 0 | 21592
2 | 4:47.68 | 2:52.60 | 21593 | 34552
3 | 7:40.53 | 6:25.57 | 34553 | 63484
4 | 14:06.35 | 2:05.29 | 63485 | 72888
5 | 16:11.64 | 5:41.42 | 72889 | 98505
6 | 21:53.31 | 2:31.30 | 98506 | 109860
7 | 24:24.61 | 5:16.54 | 109861 | 133614
8 | 29:41.40 | 4:15.20 | 133615 | 152759
9 | 33:56.60 | 4:39.06 | 152760 | 173690
10 | 38:35.66 | 4:09.25 | 173691 | 192390
11 | 42:45.16 | 8:12.54 | 192391 | 229344
12 | 50:57.70 | 3:46.12 | 229345 | 246306
13 | 54:44.07 | 8:16.16 | 246307 | 283522
14 | 63:00.23 | 2:22.14 | 283523 | 294186
15 | 65:22.37 | 3:13.57 | 294187 | 308718
16 | 68:36.19 | 2:09.64 | 308719 | 318457
17 | 70:46.08 | 4:17.59 | 318458 | 337791
18 | 75:03.67 | 3:03.72 | 337792 | 351588

Track 1

Filename C:\Program Files\Exact Audio Copy\Flac\01 - На добраніч.wav

Pre-gap length 0:00:02.00

Peak level 96.6 %
Track quality 99.9 %
Test CRC C431C2BB
Copy CRC C431C2BB
Accurately ripped (confidence 1) [9FB43510]
Copy OK

Track 2

Filename C:\Program Files\Exact Audio Copy\Flac\02 - За дуби.wav

Peak level 96.6 %
Track quality 100.0 %
Test CRC 2D86A446
Copy CRC 2D86A446
Accurately ripped (confidence 1) [B3C217EB]
Copy OK

Track 3

Filename C:\Program Files\Exact Audio Copy\Flac\03 - У Києві.wav

Peak level 96.6 %
Track quality 100.0 %
Test CRC A58AB91B
Copy CRC A58AB91B
Accurately ripped (confidence 1) [BA708B0C]
Copy OK

Track 4

Filename C:\Program Files\Exact Audio Copy\Flac\04 - Русалочки.wav

Peak level 96.6 %
Track quality 100.0 %
Test CRC FE0B7177
Copy CRC FE0B7177
Accurately ripped (confidence 1) [DD864CEC]
Copy OK

Track 5

Filename C:\Program Files\Exact Audio Copy\Flac\05 - Івана Купала.wav

Peak level 96.6 %
Track quality 100.0 %
Test CRC 335CFC82
Copy CRC 335CFC82
Accurately ripped (confidence 1) [21B486B3]
Copy OK

Track 6

Filename C:\Program Files\Exact Audio Copy\Flac\06 - Пані.wav

Peak level 96.6 %
Track quality 99.9 %
Test CRC 6A82A535
Copy CRC 6A82A535
Accurately ripped (confidence 1) [553CBE66]
Copy OK

Track 7

Filename C:\Program Files\Exact Audio Copy\Flac\07 - П'яний Арт.wav

Peak level 96.6 %
Track quality 100.0 %
Test CRC 25D5AD79
Copy CRC 25D5AD79
Accurately ripped (confidence 1) [1122358F]
Copy OK

Track 8

Filename C:\Program Files\Exact Audio Copy\Flac\08 - Свашеньки.wav

Peak level 96.6 %
Track quality 100.0 %
Test CRC ECC57F71
Copy CRC ECC57F71
Accurately ripped (confidence 1) [34A86BCC]
Copy OK

Track 9

Filename C:\Program Files\Exact Audio Copy\Flac\09 - Африка.wav

Peak level 96.6 %
Track quality 100.0 %
Test CRC 1D961642
Copy CRC 1D961642
Track not present in AccurateRip database
Copy OK

Track 10

Filename C:\Program Files\Exact Audio Copy\Flac\10 - Козак.wav

Peak level 96.6 %
Track quality 100.0 %
Test CRC EF7F19E8
Copy CRC EF7F19E8
Track not present in AccurateRip database
Copy OK

Track 11

Filename C:\Program Files\Exact Audio Copy\Flac\11 - Вдова.wav

Peak level 96.6 %
Track quality 100.0 %
Test CRC 0ED9ED36
Copy CRC 0ED9ED36
Track not present in AccurateRip database
Copy OK

Track 12

Filename C:\Program Files\Exact Audio Copy\Flac\12 - Дощ.wav

Peak level 96.6 %
Track quality 100.0 %
Test CRC 6A546DDF
Copy CRC 6A546DDF
Track not present in AccurateRip database
Copy OK

Track 13

Filename C:\Program Files\Exact Audio Copy\Flac\13 - Веснянки Чілаут.wav

Peak level 96.6 %
Track quality 100.0 %
Test CRC E36F682E
Copy CRC E36F682E
Track not present in AccurateRip database
Copy OK

Track 14

Filename C:\Program Files\Exact Audio Copy\Flac\14 - Конопля.wav

Peak level 96.6 %
Track quality 100.0 %
Test CRC 0B3FB6ED
Copy CRC 0B3FB6ED
Track not present in AccurateRip database
Copy OK

Track 15

Filename C:\Program Files\Exact Audio Copy\Flac\15 - Татарин-братко.wav

Peak level 96.6 %
Track quality 100.0 %
Test CRC EC45B3F8
Copy CRC EC45B3F8
Track not present in AccurateRip database
Copy OK

Track 16

Filename C:\Program Files\Exact Audio Copy\Flac\16 - До ста літ.wav

Peak level 96.6 %
Track quality 99.9 %
Test CRC 234CB9DC
Copy CRC 234CB9DC
Track not present in AccurateRip database
Copy OK

Track 17

Filename C:\Program Files\Exact Audio Copy\Flac\17 - Реп.wav

Peak level 96.6 %
Track quality 100.0 %
Test CRC DBAC74B8
Copy CRC DBAC74B8
Track not present in AccurateRip database
Copy OK

Track 18

Filename C:\Program Files\Exact Audio Copy\Flac\18 - Єлена.wav

Peak level 95.5 %
Track quality 99.9 %
Test CRC D44B54D1
Copy CRC D44B54D1
Track not present in AccurateRip database
Copy OK

8 track(s) accurately ripped
10 track(s) not present in the AccurateRip database

Some tracks could not be verified as accurate

No errors occurred

End of status report
cue-file
REM GENRE EthnoChaos
REM DATE 2006
REM DISCID 1D124F12
REM COMMENT "ExactAudioCopy v0.99pb5"
PERFORMER "ДахаБраха"
TITLE "На добраніч"
FILE "01 - На добраніч.wav" WAVE
TRACK 01 AUDIO
TITLE "На добраніч"
PERFORMER "ДахаБраха"
FLAGS DCP
INDEX 01 00:00:00
FILE "02 - За дуби.wav" WAVE
TRACK 02 AUDIO
TITLE "За дуби"
PERFORMER "ДахаБраха"
FLAGS DCP
INDEX 01 00:00:00
FILE "03 - У Києві.wav" WAVE
TRACK 03 AUDIO
TITLE "У Києві"
PERFORMER "ДахаБраха"
FLAGS DCP
INDEX 01 00:00:00
FILE "04 - Русалочки.wav" WAVE
TRACK 04 AUDIO
TITLE "Русалочки"
PERFORMER "ДахаБраха"
FLAGS DCP
INDEX 01 00:00:00
FILE "05 - Івана Купала.wav" WAVE
TRACK 05 AUDIO
TITLE "Івана Купала"
PERFORMER "ДахаБраха"
FLAGS DCP
INDEX 01 00:00:00
FILE "06 - Пані.wav" WAVE
TRACK 06 AUDIO
TITLE "Пані"
PERFORMER "ДахаБраха"
FLAGS DCP
INDEX 01 00:00:00
FILE "07 - П'яний Арт.wav" WAVE
TRACK 07 AUDIO
TITLE "П'яний Арт"
PERFORMER "ДахаБраха"
FLAGS DCP
INDEX 01 00:00:00
FILE "08 - Свашеньки.wav" WAVE
TRACK 08 AUDIO
TITLE "Свашеньки"
PERFORMER "ДахаБраха"
FLAGS DCP
INDEX 01 00:00:00
FILE "09 - Африка.wav" WAVE
TRACK 09 AUDIO
TITLE "Африка"
PERFORMER "ДахаБраха"
FLAGS DCP
INDEX 01 00:00:00
FILE "10 - Козак.wav" WAVE
TRACK 10 AUDIO
TITLE "Козак"
PERFORMER "ДахаБраха"
FLAGS DCP
INDEX 01 00:00:00
FILE "11 - Вдова.wav" WAVE
TRACK 11 AUDIO
TITLE "Вдова"
PERFORMER "ДахаБраха"
FLAGS DCP
INDEX 01 00:00:00
FILE "12 - Дощ.wav" WAVE
TRACK 12 AUDIO
TITLE "Дощ"
PERFORMER "ДахаБраха"
FLAGS DCP
INDEX 01 00:00:00
FILE "13 - Веснянки Чілаут.wav" WAVE
TRACK 13 AUDIO
TITLE "Веснянки Чілаут"
PERFORMER "ДахаБраха"
FLAGS DCP
INDEX 01 00:00:00
FILE "14 - Конопля.wav" WAVE
TRACK 14 AUDIO
TITLE "Конопля"
PERFORMER "ДахаБраха"
FLAGS DCP
INDEX 01 00:00:00
FILE "15 - Татарин-братко.wav" WAVE
TRACK 15 AUDIO
TITLE "Татарин-братко"
PERFORMER "ДахаБраха"
FLAGS DCP
INDEX 01 00:00:00
FILE "16 - До ста літ.wav" WAVE
TRACK 16 AUDIO
TITLE "До ста літ"
PERFORMER "ДахаБраха"
FLAGS DCP
INDEX 01 00:00:00
FILE "17 - Реп.wav" WAVE
TRACK 17 AUDIO
TITLE "Реп"
PERFORMER "ДахаБраха"
FLAGS DCP
INDEX 01 00:00:00
FILE "18 - Єлена.wav" WAVE
TRACK 18 AUDIO
TITLE "Єлена"
PERFORMER "ДахаБраха"
FLAGS DCP
INDEX 01 00:00:00
Рецензія на альбом від УМКА:
Ви зараз вперше у житті почуєте альбом "На добраніч" гурту "ДахаБраха", і я Вам, мабуть, трішки заздрю. Заздрю – тому що здорово, коли вперше відкриваєш для себе щось нове, справжнє, щире. (До речі, відкривати конверт альбому – окреме задоволення, диск офрмлено дуже солідно і красиво.) Але заздрю лише трішки – тому що з кожним новим прослуховуванням знаходжу в цій музиці все нові і нові пласти, новий подив, нову магію, новий простір. Бо тільки перші кілька секунд може здаватися, ніби тут ти почуєш щось знайоме, щось таке цілком українське, таке автентичне-архаїчне, таке вже (більш-менш) відоме... Ну то знайте – нічого подібного Ви тут не почуєте. Точніше – тільки подібне, але не таке. Цей альбом, це дійство – наче крок назад, за яким іде крок убік і два вперед. Це об’ємний вальс, квадрати якого закручено у спіралі людської ДНК. Причому ДНК не тіла, а свідомості, історії (не паперової, безумовно). Здається, ніби тут присутні підсвідомі коди не тільки людини, а й всього живого, що є на цій землі – і самої Землі. Тому що все, що є живим, неодмінно відгукається на цю музику – так чи інакше. Хтось танцює, хтось росте, хтось тече... Тому я радий, що і Ви тепер почуєте – це. І, сподіваюся, теж – зрадієте. І нехай радість танцює, і зростає, і тече...
Антон Йожик Лейба
2007 — Ягудки
Пісні:
    01 - Шо з-под дуба 769 кб/с
    02 - Русалочки 900 кб/с
    03 - Пані 789 кб/с
    04 - За дуби 909 кб/с
    05 - Ой, у Києві 645 кб/с
    06 - На добраніч 646 кб/с
    07 - Африка 622 кб/с
    08 - Козак 693 кб/с
    09 - Весна чілі 693 кб/с
    10 - Ягудки 662 кб/с
    11 - Діброва 594 кб/с
Тривалість: 00:59:19
Мова: українська (різні діалекти та говірки)
Видавець: UkrMusic
log-file
Exact Audio Copy V0.99 prebeta 5 from 4. May 2009

EAC extraction logfile from 31. January 2011, 23:18

ДахаБраха / Ягудки

Used drive : ASUS DRW-20B1S Adapter: 3 ID: 0

Read mode : Secure
Utilize accurate stream : Yes
Defeat audio cache : Yes
Make use of C2 pointers : No

Read offset correction : 6
Overread into Lead-In and Lead-Out : No
Fill up missing offset samples with silence : Yes
Delete leading and trailing silent blocks : No
Null samples used in CRC calculations : Yes
Used interface : Installed external ASPI interface
Gap handling : Appended to previous track

Used output format : User Defined Encoder
Selected bitrate : 1024 kBit/s
Quality : High
Add ID3 tag : No
Command line compressor : C:\Program Files\Exact Audio Copy\Flac\flac.exe
Additional command line options : -8 -V -T "ARTIST=%a" -T "TITLE=%t" -T "ALBUM=%g" -T "DATE=%y" -T "TRACKNUMBER=%n" -T "GENRE=%m" -T "COMMENT=EAC FLAC -8" %s

TOC of the extracted CD

Track | Start | Length | Start sector | End sector
---------------------------------------------------------
1 | 0:00.00 | 3:48.15 | 0 | 17114
2 | 3:48.15 | 1:49.21 | 17115 | 25310
3 | 5:37.36 | 3:27.52 | 25311 | 40887
4 | 9:05.13 | 2:19.35 | 40888 | 51347
5 | 11:24.48 | 9:32.13 | 51348 | 94260
6 | 20:56.61 | 5:16.47 | 94261 | 118007
7 | 26:13.33 | 6:11.32 | 118008 | 145864
8 | 32:24.65 | 4:19.72 | 145865 | 165361
9 | 36:44.62 | 9:34.62 | 165362 | 208473
10 | 46:19.49 | 6:47.62 | 208474 | 239060
11 | 53:07.36 | 6:12.02 | 239061 | 266962

Track 1

Filename C:\Program Files\Exact Audio Copy\Flac\01 - Шо з-под дуба.wav

Pre-gap length 0:00:02.00

Peak level 97.9 %
Track quality 100.0 %
Test CRC 7C03411F
Copy CRC 7C03411F
Accurately ripped (confidence 2) [A1B088D0]
Copy OK

Track 2

Filename C:\Program Files\Exact Audio Copy\Flac\02 - Русалочки.wav

Pre-gap length 0:00:02.00

Peak level 100.0 %
Track quality 100.0 %
Test CRC 0B7739FB
Copy CRC 0B7739FB
Accurately ripped (confidence 2) [129B56D9]
Copy OK

Track 3

Filename C:\Program Files\Exact Audio Copy\Flac\03 - Пані.wav

Pre-gap length 0:00:02.00

Peak level 100.0 %
Track quality 100.0 %
Test CRC 46CA74AD
Copy CRC 46CA74AD
Accurately ripped (confidence 2) [81CBC4AF]
Copy OK

Track 4

Filename C:\Program Files\Exact Audio Copy\Flac\04 - За дуби.wav

Pre-gap length 0:00:02.00

Peak level 100.0 %
Track quality 99.9 %
Test CRC 5E5B1B12
Copy CRC 5E5B1B12
Accurately ripped (confidence 2) [286E01C0]
Copy OK

Track 5

Filename C:\Program Files\Exact Audio Copy\Flac\05 - Ой, у Києві.wav

Pre-gap length 0:00:02.00

Peak level 100.0 %
Track quality 99.9 %
Test CRC A868906D
Copy CRC A868906D
Accurately ripped (confidence 2) [70ADC537]
Copy OK

Track 6

Filename C:\Program Files\Exact Audio Copy\Flac\06 - На добраніч.wav

Pre-gap length 0:00:02.00

Peak level 98.5 %
Track quality 100.0 %
Test CRC 8CAB2442
Copy CRC 8CAB2442
Accurately ripped (confidence 2) [3464BC92]
Copy OK

Track 7

Filename C:\Program Files\Exact Audio Copy\Flac\07 - Африка.wav

Pre-gap length 0:00:02.00

Peak level 100.0 %
Track quality 100.0 %
Test CRC 5A29C571
Copy CRC 5A29C571
Accurately ripped (confidence 2) [C4F7A2B9]
Copy OK

Track 8

Filename C:\Program Files\Exact Audio Copy\Flac\08 - Козак.wav

Pre-gap length 0:00:02.00

Peak level 100.0 %
Track quality 100.0 %
Test CRC C70722B4
Copy CRC C70722B4
Accurately ripped (confidence 2) [6C058B1D]
Copy OK

Track 9

Filename C:\Program Files\Exact Audio Copy\Flac\09 - Весна чилі.wav

Pre-gap length 0:00:02.00

Peak level 100.0 %
Track quality 100.0 %
Test CRC B1E05BA1
Copy CRC B1E05BA1
Accurately ripped (confidence 2) [AB077038]
Copy OK

Track 10

Filename C:\Program Files\Exact Audio Copy\Flac\10 - Ягудки.wav

Pre-gap length 0:00:02.00

Peak level 100.0 %
Track quality 100.0 %
Test CRC 836ABF17
Copy CRC 836ABF17
Accurately ripped (confidence 2) [681C52BA]
Copy OK

Track 11

Filename C:\Program Files\Exact Audio Copy\Flac\11 - Діброва.wav

Pre-gap length 0:00:02.00

Peak level 100.0 %
Track quality 100.0 %
Test CRC 12B3E7EE
Copy CRC 12B3E7EE
Accurately ripped (confidence 2) [03FB04EE]
Copy OK

All tracks accurately ripped

No errors occurred

End of status report
cue-file
REM GENRE Ethno
REM DATE 2007
REM DISCID A10DE70B
REM COMMENT "ExactAudioCopy v0.99pb5"
PERFORMER "ДахаБраха"
TITLE "Ягудки"
FILE "01 - Шо з-под дуба.wav" WAVE
TRACK 01 AUDIO
TITLE "Шо з-под дуба"
PERFORMER "ДахаБраха"
FLAGS DCP
INDEX 01 00:00:00
TRACK 02 AUDIO
TITLE "Русалочки"
PERFORMER "ДахаБраха"
FLAGS DCP
INDEX 00 03:46:15
FILE "02 - Русалочки.wav" WAVE
INDEX 01 00:00:00
TRACK 03 AUDIO
TITLE "Пані"
PERFORMER "ДахаБраха"
FLAGS DCP
INDEX 00 01:47:21
FILE "03 - Пані.wav" WAVE
INDEX 01 00:00:00
TRACK 04 AUDIO
TITLE "За дуби"
PERFORMER "ДахаБраха"
FLAGS DCP
INDEX 00 03:25:52
FILE "04 - За дуби.wav" WAVE
INDEX 01 00:00:00
TRACK 05 AUDIO
TITLE "Ой, у Києві"
PERFORMER "ДахаБраха"
FLAGS DCP
INDEX 00 02:17:35
FILE "05 - Ой, у Києві.wav" WAVE
INDEX 01 00:00:00
TRACK 06 AUDIO
TITLE "На добраніч"
PERFORMER "ДахаБраха"
FLAGS DCP
INDEX 00 09:30:13
FILE "06 - На добраніч.wav" WAVE
INDEX 01 00:00:00
TRACK 07 AUDIO
TITLE "Африка"
PERFORMER "ДахаБраха"
FLAGS DCP
INDEX 00 05:14:47
FILE "07 - Африка.wav" WAVE
INDEX 01 00:00:00
TRACK 08 AUDIO
TITLE "Козак"
PERFORMER "ДахаБраха"
FLAGS DCP
INDEX 00 06:09:32
FILE "08 - Козак.wav" WAVE
INDEX 01 00:00:00
TRACK 09 AUDIO
TITLE "Весна чилі"
PERFORMER "ДахаБраха"
FLAGS DCP
INDEX 00 04:17:72
FILE "09 - Весна чилі.wav" WAVE
INDEX 01 00:00:00
TRACK 10 AUDIO
TITLE "Ягудки"
PERFORMER "ДахаБраха"
FLAGS DCP
INDEX 00 09:32:62
FILE "10 - Ягудки.wav" WAVE
INDEX 01 00:00:00
TRACK 11 AUDIO
TITLE "Діброва"
PERFORMER "ДахаБраха"
FLAGS DCP
INDEX 00 06:45:62
FILE "11 - Діброва.wav" WAVE
INDEX 01 00:00:00
Рецензія на альбом від УМКА:
Зі своїм першим альбомом 2006 року "На добраніч" ДахаБраха не увійшла – увірвалася до музичного простору, пустила коріння і жваво прийнялася до росту. То було живою радістю – і само по собі, і тому, зокрема, що альбом складався із записів живих виступів гурту. Тепер – відбувається кристалізація, і зараз Ви бачите перший студійний альбом проекту. З одного боку – це означає, що частина пісень здасться Вам вже начебто знайомою. З іншого – що навіть знайомі речі постануть у новому світлі. Але все одно це світло залишається – магічним. Не таким, як старий добрий розважальний "чарівний ліхтар", а – таким, як у Габріеля Маркеса, Горана Петровича, Тараса Прохаська. Коли дивним чином поєднується прадавнє різних людей і континентів – і їхнє сучасне – і простір, в якому це живе, належить світові і світлові, а не часові... Коли увага до дрібних, здавалося б, деталей призводить до здатності відкривати і бачити Всесвіт у кожній піщинці, краплині. Коли все відбувається настільки правдиво, що часто здається відверто фантастичним... ДахаБраха інколи – вода, що живить, плекає, несе і оберігає. А інколи – найтонше лезо, що розсікає навпіл гірчичне зерня, аби знайти там – вітер, сонце, волю. Невідомо, що саме знайде тут кожен з нас, але точно – знайде. Дивна є ця музика – та дивним є і світ наш. Бачиш?
Антон Йожик Лейба
2009 — На межі
Пісні:
    01 - Ой за лісочком 794 кб/с
    02 - Над Дунаєм 787 кб/с
    03 - Весна 753 кб/с
    04 - Вальс 817 кб/с
    05 - Ванюша 793 кб/с
    06 - Заїнька 687 кб/с
    07 - Дівка-Марусечка 906 кб/с

Тривалість: 00:58:05
Мова: українська (різні діалекти та говірки)
Видавець: гурт
log-file
Exact Audio Copy V0.99 prebeta 5 from 4. May 2009

EAC extraction logfile from 31. January 2011, 22:39

ДахаБраха / На межі

Used drive : ASUS DRW-20B1S Adapter: 3 ID: 0

Read mode : Secure
Utilize accurate stream : Yes
Defeat audio cache : Yes
Make use of C2 pointers : No

Read offset correction : 6
Overread into Lead-In and Lead-Out : No
Fill up missing offset samples with silence : Yes
Delete leading and trailing silent blocks : No
Null samples used in CRC calculations : Yes
Used interface : Installed external ASPI interface
Gap handling : Appended to previous track

Used output format : User Defined Encoder
Selected bitrate : 1024 kBit/s
Quality : High
Add ID3 tag : No
Command line compressor : C:\Program Files\Exact Audio Copy\Flac\flac.exe
Additional command line options : -8 -V -T "ARTIST=%a" -T "TITLE=%t" -T "ALBUM=%g" -T "DATE=%y" -T "TRACKNUMBER=%n" -T "GENRE=%m" -T "COMMENT=EAC FLAC -8" %s

TOC of the extracted CD

Track | Start | Length | Start sector | End sector
---------------------------------------------------------
1 | 0:00.00 | 8:43.66 | 0 | 39290
2 | 8:43.66 | 8:41.53 | 39291 | 78418
3 | 17:25.44 | 7:48.05 | 78419 | 113523
4 | 25:13.49 | 6:09.34 | 113524 | 141232
5 | 31:23.08 | 9:31.73 | 141233 | 184130
6 | 40:55.06 | 11:26.50 | 184131 | 235630
7 | 52:21.56 | 5:43.55 | 235631 | 261410

Track 1

Filename C:\Program Files\Exact Audio Copy\Flac\01 - Ой за лісочком.wav

Pre-gap length 0:00:02.00

Peak level 100.0 %
Track quality 100.0 %
Test CRC FBD61EF9
Copy CRC FBD61EF9
Track not present in AccurateRip database
Copy OK

Track 2

Filename C:\Program Files\Exact Audio Copy\Flac\02 - Над Дунаєм.wav

Pre-gap length 0:00:02.00

Peak level 100.0 %
Track quality 100.0 %
Test CRC 6B8AB826
Copy CRC 6B8AB826
Track not present in AccurateRip database
Copy OK

Track 3

Filename C:\Program Files\Exact Audio Copy\Flac\03 - Весна.wav

Pre-gap length 0:00:02.00

Peak level 100.0 %
Track quality 100.0 %
Test CRC F99EFFA3
Copy CRC F99EFFA3
Track not present in AccurateRip database
Copy OK

Track 4

Filename C:\Program Files\Exact Audio Copy\Flac\04 - Вальс.wav

Pre-gap length 0:00:02.00

Peak level 100.0 %
Track quality 100.0 %
Test CRC 6B89C634
Copy CRC 6B89C634
Track not present in AccurateRip database
Copy OK

Track 5

Filename C:\Program Files\Exact Audio Copy\Flac\05 - Ванюша.wav

Pre-gap length 0:00:02.00

Peak level 100.0 %
Track quality 100.0 %
Test CRC FCBBCACD
Copy CRC FCBBCACD
Track not present in AccurateRip database
Copy OK

Track 6

Filename C:\Program Files\Exact Audio Copy\Flac\06 - Заїнька.wav

Pre-gap length 0:00:02.00

Peak level 100.0 %
Track quality 100.0 %
Test CRC 808754C9
Copy CRC 808754C9
Track not present in AccurateRip database
Copy OK

Track 7

Filename C:\Program Files\Exact Audio Copy\Flac\07 - Дівка-Марусечка.wav

Pre-gap length 0:00:02.00

Peak level 100.0 %
Track quality 100.0 %
Test CRC 5A5237BB
Copy CRC 5A5237BB
Track not present in AccurateRip database
Copy OK

None of the tracks are present in the AccurateRip database

No errors occurred

End of status report
cue-file
REM GENRE EthnoChaos
REM DATE 2009
REM DISCID 590D9D07
REM COMMENT "ExactAudioCopy v0.99pb5"
PERFORMER "ДахаБраха"
TITLE "На межі"
FILE "01 - Ой за лісочком.wav" WAVE
TRACK 01 AUDIO
TITLE "Ой за лісочком"
PERFORMER "ДахаБраха"
FLAGS DCP
INDEX 01 00:00:00
TRACK 02 AUDIO
TITLE "Над Дунаєм"
PERFORMER "ДахаБраха"
FLAGS DCP
INDEX 00 08:41:66
FILE "02 - Над Дунаєм.wav" WAVE
INDEX 01 00:00:00
TRACK 03 AUDIO
TITLE "Весна"
PERFORMER "ДахаБраха"
FLAGS DCP
INDEX 00 08:39:53
FILE "03 - Весна.wav" WAVE
INDEX 01 00:00:00
TRACK 04 AUDIO
TITLE "Вальс"
PERFORMER "ДахаБраха"
FLAGS DCP
INDEX 00 07:46:05
FILE "04 - Вальс.wav" WAVE
INDEX 01 00:00:00
TRACK 05 AUDIO
TITLE "Ванюша"
PERFORMER "ДахаБраха"
FLAGS DCP
INDEX 00 06:07:34
FILE "05 - Ванюша.wav" WAVE
INDEX 01 00:00:00
TRACK 06 AUDIO
TITLE "Заїнька"
PERFORMER "ДахаБраха"
FLAGS DCP
INDEX 00 09:29:73
FILE "06 - Заїнька.wav" WAVE
INDEX 01 00:00:00
TRACK 07 AUDIO
TITLE "Дівка-Марусечка"
PERFORMER "ДахаБраха"
FLAGS DCP
INDEX 00 11:24:50
FILE "07 - Дівка-Марусечка.wav" WAVE
INDEX 01 00:00:00
Рецензія на альбом від УМКА:
ДахаБраха стає все більш прозорою, ясною – прямою, якщо завгодно. Не такою прямою, як колода, а – як стріла. Це так само, як мудрість має пройти повний шлях від складного до простого – інакше не зростатиме нічого, крім інтелекту. А він же ж, коли голий – то доволі-таки мертвий вантаж... Тут – інакше. На першому альбомі музика гурту буквально змітала слухача, вихоплювала його до гарячого танцю – бо то був дійсно якийсь первісний шквал вогненної енергії. Другий альбом був студійним, і тому більш м’яким – але основа лишалася тою ж. А ось тут, "На межі" – у музиці ДахаБрахи дуже відчутно проявляється сила води, виникає магія зовсім іншого рівня, призначена для інших цілей. Тобто, перші роботи мали просто спалити все старе, не здатне до життя – розчистити місце. Робота нова – має живити нове, свіже, спираючись на ті корені, що не піддалися дії вогню. Десь тут проходить та сама межа, від якої може початися створення нового міфу, нового культурного сплаву – принаймні, передумови в альбомі є. Чи вдасться виплекати з цього щось дійсно зелене й гнучке – запитання на майбутнє. Але те, що ДахаБраха на досвіді власної творчості проходить шлях від первісного хаосу до гармонійного творіння – здається очевидним. Чи очі видять?
Антон Йожик Лейба
2010 — Light
Пісні:
    01 - Сухий дуб 839 кб/с
    02 - Specially for you 735 кб/с
    03 - Карпатський реп 895 кб/с
    04 - Жаба 918 кб/с
    05 - Тьолки 878 кб/с
    06 - Колискова 840 кб/с
    07 - Baby 816 кб/с
    08 - Please don't cry (кавер Concord Down) 853 кб/с
    09 - Бувайте здорові 773 кб/с
Тривалість: 00:58:08
Мова: українська (різні діалекти та говірки), англійська (2, 6—8)
Видавець: Shugar Studio
log-file
Exact Audio Copy V0.99 prebeta 5 from 4. May 2009

EAC extraction logfile from 31. January 2011, 21:43

ДахаБраха / Light

Used drive : ASUS DRW-20B1S Adapter: 3 ID: 0

Read mode : Secure
Utilize accurate stream : Yes
Defeat audio cache : Yes
Make use of C2 pointers : No

Read offset correction : 6
Overread into Lead-In and Lead-Out : No
Fill up missing offset samples with silence : Yes
Delete leading and trailing silent blocks : No
Null samples used in CRC calculations : Yes
Used interface : Installed external ASPI interface
Gap handling : Appended to previous track

Used output format : User Defined Encoder
Selected bitrate : 1024 kBit/s
Quality : High
Add ID3 tag : No
Command line compressor : C:\Program Files\Exact Audio Copy\Flac\flac.exe
Additional command line options : -8 -V -T "ARTIST=%a" -T "TITLE=%t" -T "ALBUM=%g" -T "DATE=%y" -T "TRACKNUMBER=%n" -T "GENRE=%m" -T "COMMENT=EAC FLAC -8" %s

TOC of the extracted CD

Track | Start | Length | Start sector | End sector
---------------------------------------------------------
1 | 0:00.00 | 6:29.18 | 0 | 29192
2 | 6:29.18 | 6:05.37 | 29193 | 56604
3 | 12:34.55 | 5:57.09 | 56605 | 83388
4 | 18:31.64 | 8:06.43 | 83389 | 119881
5 | 26:38.32 | 3:46.10 | 119882 | 136841
6 | 30:24.42 | 5:46.31 | 136842 | 162822
7 | 36:10.73 | 7:23.48 | 162823 | 196095
8 | 43:34.46 | 6:15.50 | 196096 | 224270
9 | 49:50.21 | 8:18.41 | 224271 | 261661

Track 1

Filename C:\Program Files\Exact Audio Copy\Flac\01 - Сухий дуб.wav

Pre-gap length 0:00:02.00

Peak level 99.4 %
Track quality 100.0 %
Test CRC 152C4000
Copy CRC 152C4000
Track not present in AccurateRip database
Copy OK

Track 2

Filename C:\Program Files\Exact Audio Copy\Flac\02 - Specially for you.wav

Pre-gap length 0:00:02.00

Peak level 99.4 %
Track quality 100.0 %
Test CRC 1C63B868
Copy CRC 1C63B868
Track not present in AccurateRip database
Copy OK

Track 3

Filename C:\Program Files\Exact Audio Copy\Flac\03 - Карпатський реп.wav

Pre-gap length 0:00:02.00

Peak level 99.0 %
Track quality 100.0 %
Test CRC 67B37DBA
Copy CRC 67B37DBA
Track not present in AccurateRip database
Copy OK

Track 4

Filename C:\Program Files\Exact Audio Copy\Flac\04 - Жаба.wav

Pre-gap length 0:00:02.00

Peak level 98.8 %
Track quality 100.0 %
Test CRC 0B4108F4
Copy CRC 0B4108F4
Track not present in AccurateRip database
Copy OK

Track 5

Filename C:\Program Files\Exact Audio Copy\Flac\05 - Тьолки.wav

Pre-gap length 0:00:02.00

Peak level 99.2 %
Track quality 99.9 %
Test CRC AEC4C6A3
Copy CRC AEC4C6A3
Track not present in AccurateRip database
Copy OK

Track 6

Filename C:\Program Files\Exact Audio Copy\Flac\06 - Колискова.wav

Pre-gap length 0:00:02.00

Peak level 99.4 %
Track quality 100.0 %
Test CRC 510B6E09
Copy CRC 510B6E09
Track not present in AccurateRip database
Copy OK

Track 7

Filename C:\Program Files\Exact Audio Copy\Flac\07 - Baby.wav

Pre-gap length 0:00:02.00

Peak level 98.9 %
Track quality 99.9 %
Test CRC 62F8E8B4
Copy CRC 62F8E8B4
Track not present in AccurateRip database
Copy OK

Track 8

Filename C:\Program Files\Exact Audio Copy\Flac\08 - Please don't cry.wav

Pre-gap length 0:00:02.00

Peak level 99.2 %
Track quality 100.0 %
Test CRC ABBA106B
Copy CRC ABBA106B
Track not present in AccurateRip database
Copy OK

Track 9

Filename C:\Program Files\Exact Audio Copy\Flac\09 - Бувайте здорові.wav

Pre-gap length 0:00:02.00

Peak level 99.0 %
Track quality 99.4 %
Test CRC 35D65AE8
Copy CRC 62A5A9BB
Track not present in AccurateRip database
Copy OK

None of the tracks are present in the AccurateRip database

No errors occurred

End of status report
cue-file
REM GENRE EthnoChaos
REM DATE 2010
REM DISCID 700DA009
REM COMMENT "ExactAudioCopy v0.99pb5"
PERFORMER "ДахаБраха"
TITLE "Light"
FILE "01 - Сухий дуб.wav" WAVE
TRACK 01 AUDIO
TITLE "Сухий дуб"
PERFORMER "ДахаБраха"
INDEX 01 00:00:00
TRACK 02 AUDIO
TITLE "Specially for you"
PERFORMER "ДахаБраха"
INDEX 00 06:27:18
FILE "02 - Specially for you.wav" WAVE
INDEX 01 00:00:00
TRACK 03 AUDIO
TITLE "Карпатський реп"
PERFORMER "ДахаБраха"
INDEX 00 06:03:37
FILE "03 - Карпатський реп.wav" WAVE
INDEX 01 00:00:00
TRACK 04 AUDIO
TITLE "Жаба"
PERFORMER "ДахаБраха"
INDEX 00 05:55:09
FILE "04 - Жаба.wav" WAVE
INDEX 01 00:00:00
TRACK 05 AUDIO
TITLE "Тьолки"
PERFORMER "ДахаБраха"
INDEX 00 08:04:43
FILE "05 - Тьолки.wav" WAVE
INDEX 01 00:00:00
TRACK 06 AUDIO
TITLE "Колискова"
PERFORMER "ДахаБраха"
INDEX 00 03:44:10
FILE "06 - Колискова.wav" WAVE
INDEX 01 00:00:00
TRACK 07 AUDIO
TITLE "Baby"
PERFORMER "ДахаБраха"
INDEX 00 05:44:31
FILE "07 - Baby.wav" WAVE
INDEX 01 00:00:00
TRACK 08 AUDIO
TITLE "Please don't cry"
PERFORMER "ДахаБраха"
INDEX 00 07:21:48
FILE "08 - Please don't cry.wav" WAVE
INDEX 01 00:00:00
TRACK 09 AUDIO
TITLE "Бувайте здорові"
PERFORMER "ДахаБраха"
INDEX 00 06:13:50
FILE "09 - Бувайте здорові.wav" WAVE
INDEX 01 00:00:00
Рецензія на альбом від УМКА:
Третій студійний альбом гурту ДахаБраха – це знову якийсь інший якісний рівень і за змістом, і за формою. Зрештою, на сьогоднішній день гурт є одним з кращих представників українського варіанту world music – визнаним не лише в Україні, а і в багатьох інших країнах світу. І, схоже, настав слушний момент для своєрідного відпочинку та експериментів – нова робота дуже відрізняється від усіх попередніх, хоча почерк ДахаБрахи, звичайно ж, легко впізнати у будь-якому разі. Ви й самі бачите, що назву альбому можна тлумачити і як "світло", і як "легкий", і не тільки. Так само і вміст альбому у стильовому плані є неоднозначним – але, однозначно, цікавим. Цього разу до фірмового етно-хаосу домішано чимало зовсім різних елементів: тут і соул, і D'n'B, і гіп-гоп, і арт-рокові, і майже джазові прикраси. Очевидно, є в цьому заслуги не лише музикантів груту, а і Юрія Хусточки (Esthetic Education, Piss&Laugh, екс-Океан Ельзи) – бо він став саунд-продюсером альбому. Вийшло здорово. Бо фарби нанесено з фантазією і розмахом майстра, а не учня. Бо кожна нова пісня обертається на іронічний культурний колаж, де, як у будь-якому звичайному чарівному дзеркалі, можна побачити не лише себе, а й правдиві риси навколишнього світу, його душу. А часом – навіть відчути вібрації духу, вкоріненого так глибоко (або й так широко?), що національні та політичні кордони втрачають сенс абсолютно...
Загальна тривалість: 04:13:41
Аудіо-кодек: FLAC
Тип ріпу: tracks
Бітрейт: ~ 700—1000 кб/с (див. під спойлерами потреково)
Джерело: власний ріп

Додаткова інформація:
Про гурт:
Світ виникає з хаосу. Музика постає з душі етносу. ДахаБраха– назва оригінальна, тобто чудернацька і автентична водночас. Давати і брати – із староукраїнської мови. На музикальний слух, у цій назві звучать і виграють, як самодостатні акорди однієї єдності і “РА” – сонце, і “брама” – ворота, вхід, і “Брахма” – Верховний Бог творення індуїзму… душа-Птаха і звичайно – “ДАХ” як місце створення самої групи “ДахаБраха”.
До складу групи входять: Ніна Гаренецька, Ірина Коваленко, Олена Цибульська, Марко Галаневич. Інструментальний ряд “ДахаБрахи” – гуцульський барабан, джамбе, дарбука, великий барабан, віолончель, дитячі гармошки, австралійське діджеріду, аккордеон, гармошка "Ромашка", тромбон, всілякі шумові інструменти ( вітер, дощ...), індійські табла, бугай, будійський гонг …
“ДахаБраха” складова нового проекту Владислава Троїцького “Україна Містична”.

Концептуальне підґрунтя творчості гурту:
Україна – це країна, що дезорієнтована географічно, держава - політично, а етнос - культурно. Народницька ідея типу “Хто ми є, якого роду/племені діти?” - відгонить недоречним пафосом і сентиментальністю, постмодерні розвінчання національних кумирів просякнуті уразливою іронією і цинізмом. І те, і інше - безпорадні тактики, бо без духовного зерна будь-яка стратегія безплідна. В Україні бракує сакральної ідеї, ідеї об’єднавчої. Проте сакральна ідея полягає не в реставрації традиційних форм побутування і мислення народу, а насамперед - у створенні нового міфу про самих себе. І цей процес самотворення, як і будь-який містеріальний акт, йде через руйнацію віджилого уявлення, а саме - уявлення українців про себе як провінційну націю, залежну, упосліджену, пасивну.



Якщо Ви справді бажаєте підтримати українське —
після прослуховування, якщо музика вам сподобалась,
придбайте ліцензійні диски.
Підтримаймо вітчизняних виконавців!


Золотий реліз (завантажене не впливає на рейтинг)
 Трекер:    Зареєстрований   

Завантажити / скачати українську музику



відео для новачків



 Зареєстрований:   2011-02-02 00:22
 Розмір:   1.48 GB 
 Оцінка музики:   10/10 (Голосів: 43)
   
Skiff 
музика
музика


З нами з: 12.11.07
Востаннє: 06.12.16
Повідомлень: 3051

2009-04-13 23:05  
ладненький реліз. Дякую Happy
jinotot 
Почесний оцифрувальник літератури


З нами з: 28.01.09
Востаннє: 04.12.16
Повідомлень: 3235

2009-04-13 23:10  
Skiff написано:
ладненький реліз. Дякую

Копі-паст форева! Wink (1) На здоров'я! Як все ж таки приємно, коли хвалять Rolleyes (2)
Skiff, видали, будь ласка голосування з теми в MP3! Завчасно дуже дякую!

6c6c6 
Поважний учасник


З нами з: 30.09.07
Востаннє: 30.09.09
Повідомлень: 3674

2009-04-13 23:24  
О майн гот.... те що треба. Але знов місця на харді бракує. Sad (1)
Skiff 
музика
музика


З нами з: 12.11.07
Востаннє: 06.12.16
Повідомлень: 3051

2009-04-13 23:39  
6c6c6 написано:
Але знов місця на харді бракує.
та сама біда).
jinotot 
Почесний оцифрувальник літератури


З нами з: 28.01.09
Востаннє: 04.12.16
Повідомлень: 3235

2009-04-13 23:59  
6c6c6, Skiff! Хлопці, у мене взагалі 2 гіга ся лишило (не знаю, як у вас правда)...
Так що формуєму групу під назвою "Подаруйте нам ХаДеДе!!!" Wink (1) Happy Happy
Або вантажте у еМПе3 до кращих часів Happy що тут ще поробиш...
А от у weber'а, бачу таких проблем немає Wink (1) Happy
6c6c6 написано:
О майн гот.... те що треба.

Радий що догодив! Пам'ятається ще хтось "Легенди химерного краю" збирався вантажити Rolleyes (2) , але я так бачу, що з диском і правда завал Sad (1)
Дякую за видалене голосування!

Трохи офтопу у власній темі Happy
Поясніть, прошу, невже флак справді настільки кращий від еМПе3?? Мені просто цього, мабуть, не зрозуміти у відчуттєвому плані, бо слуху у мене нема Sad (1) Чи це якось інакше визначається? Happy
Плюс мій плеєр той флак не підтримує, а музику я слухаю переважно з нього, а не з колонок... Тому, мабуть, не скоро зрозумію, чим же хороший той флак, хіба що ви розтолкуєте Happy
А! Знаю його перевагу -- якщо створюєш реліз у флак і його качають, то непогано додає рейтингу!!! Wide grin Wide grin Wide grin

Skiff 
музика
музика


З нами з: 12.11.07
Востаннє: 06.12.16
Повідомлень: 3051

2009-04-14 00:10  
jinotot, в емпетри-форматі вже давно є Tongue out (1) . Але флеки та інші лусслеси тим мені цінні, що можна спокійно заганяти в сіді (Audio CD) і знати що є в мене музичка з якісним звучанням)
jinotot написано:
якщо створюєш реліз у флак і його качають,
але зазвичай швидко тікають з роздачі...(
jinotot 
Почесний оцифрувальник літератури


З нами з: 28.01.09
Востаннє: 04.12.16
Повідомлень: 3235

2009-04-14 00:13  
Skiff написано:
Але флеки та інші лусслеси тим мені цінні, що можна спокійно заганяти в сіді (Audio CD) і знати що є в мене музичка з якісним звучанням)

Згоден! Якщо, звісно, вважати оптичний диск довговічно існуючою сутністю Happy Wide grin Tongue out (1)
Skiff написано:
але зазвичай швидко тікають з роздачі...(

Хто тікає? Ті, хто створив, чи ті, хто скачав? Я не тікаю нікуди -- ось він я, так що на мене можете розраховувати Wink (1)

weber 
Почесний гуртомівець


З нами з: 03.08.08
Востаннє: 07.12.16
Повідомлень: 7003

2009-04-14 00:15  
jinotot написано:
А от у weber'а, бачу таких проблем немає Wink (1) Happy

Якби ж, намагаюся тримати ~30 вільними сумарно, найважливіше те що я маю це фотографії та деякі документи та курсові які сам робив, а все інше можна повторно завантажити Happy

jinotot 
Почесний оцифрувальник літератури


З нами з: 28.01.09
Востаннє: 04.12.16
Повідомлень: 3235

2009-04-14 00:21  
weber
Дуже виважений підхід! Мені, наприклад, завжди складно визначитися, що потрібно, а що -- ні...

Тобі сьогодні дороздати чи потерпиш до завтра? Happy
А то я десь за годинку -- баїньки планую Rolleyes (2)

weber 
Почесний гуртомівець


З нами з: 03.08.08
Востаннє: 07.12.16
Повідомлень: 7003

2009-04-14 00:24  
jinotot написано:

Тобі сьогодні дороздати чи потерпиш до завтра? Happy
А то я десь за годинку -- баїньки планую Rolleyes (2)

вимикай, не горить, тим більше і сам вимикаю.
jinotot написано:
Дуже виважений підхід! Мені, наприклад, завжди складно визначитися, що потрібно, а що -- ні...

підхід виважений, але сідую багато, тож все майже зайнято

Skiff 
музика
музика


З нами з: 12.11.07
Востаннє: 06.12.16
Повідомлень: 3051

2009-04-15 00:18  
jinotot написано:
оптичний диск довговічно існуючою сутністю
ніщо не вічне, одна лиш музика... Happy
jinotot написано:
Хто тікає? Ті, хто створив, чи ті, хто скачав?
2-й варіант. Зазвичай качають для того щоб загнати в "довговічно існуючу сутність".
jinotot 
Почесний оцифрувальник літератури


З нами з: 28.01.09
Востаннє: 04.12.16
Повідомлень: 3235

2009-04-15 00:23  
Skiff
Вітаю з віднайденням вільного місця на на ХаДеДе!!! Чи ти одразу на оптичний пишеш? Wide grin Wide grin Wide grin
Непогано було б, якби була така можливість... Rolleyes (2)

6c6c6 
Поважний учасник


З нами з: 30.09.07
Востаннє: 30.09.09
Повідомлень: 3674

2009-04-15 21:18  
jinotot написано:
чим же хороший той флак

Подарував мені кум непогані вуха... Треба ж їх якось використовувати Wide grin Вдома слухаю як є, а от на роботі (зараз проблеми зі звуковухою) з програвача-за-сумісництвом-мобіли саму у МеПе3.

jinotot 
Почесний оцифрувальник літератури


З нами з: 28.01.09
Востаннє: 04.12.16
Повідомлень: 3235

2009-04-15 21:41  
6c6c6
А мої вуха потроху здають позиції... Cry (1) Правда, koss РortaРro, звичайно не найкращі вуха в світі, але й непогані... Та от відслужили вже видно свій термін... Ну нічо... Півгодини роботи паяльником і ми влаштуємо їм реінкарнацію!!! Happy
О, а мобіли такий формат підтримують? Ну, напевно, у моїй Nоkіа 1100 навряд чи піде... Wide grin Wide grin Wide grin

weber 
Почесний гуртомівець


З нами з: 03.08.08
Востаннє: 07.12.16
Повідомлень: 7003

2009-04-16 21:19  
jinotot, загалом плеєр підтримує невелика кількість пристроїв, але з усіх лусслесс кодеків найкраща ситуація, окрім ААС з айподами, хоча на нього можна прошити рокбокс і все буде норм Happy

А різниця відчутна, я от на своїх не найдорожчих 5.1 і вбудованому звуці її відчуваю, але на плеєрі MP3 лише

kovpack 
Поважний учасник


З нами з: 10.12.07
Востаннє: 07.12.16
Повідомлень: 185

2009-04-17 09:18  
музика просто супер Happy давно не слухав нічого схожого.
jinotot 
Почесний оцифрувальник літератури


З нами з: 28.01.09
Востаннє: 04.12.16
Повідомлень: 3235

2009-04-17 13:23  
kovpack написано:
музика просто супер давно не слухав нічого схожого.

Дуже радий, що багатьом "смакує" Happy
Також раджу обов'язково послухати альбом "ДахиБрахи" Ягудки!!!
Він мій улюблений! Найдрайвовіший! Wide grin
Ну і також на трекері є На межі, але він трохи не схожий на перші два альбоми гурту...

ssTAss 
Модератор музики


З нами з: 05.07.08
Востаннє: 08.12.16
Повідомлень: 10947

2011-02-02 14:52  
величезне дякую за дискографію Дахи в лузлесі

P.S. самі знаєте, але просто нагадаю, не забудьте поставити бітрейт в альбомах

jinotot 
Почесний оцифрувальник літератури


З нами з: 28.01.09
Востаннє: 04.12.16
Повідомлень: 3235

2011-02-03 01:31  
ssTAss’е, я додав бітрейт потреково.
А зауважень вмісту щодо лоґ-файлів не буде? Happy
Бо я, чесно кажучи, так і не зрозумів, чому в одному випадку:
jinotot написано:
8 track(s) accurately ripped
10 track(s) not present in the AccurateRip database

Some tracks could not be verified as accurate

No errors occurred

В іншому:
jinotot написано:
All tracks accurately ripped

No errors occurred

А ще є отаке:
jinotot написано:
None of the tracks are present in the AccurateRip database

No errors occurred

Яка між тим всім різниця і на що це вказує? Ну, якщо все це, звісно, має хоч якесь значення Happy

ssTAss 
Модератор музики


З нами з: 05.07.08
Востаннє: 08.12.16
Повідомлень: 10947

2011-02-03 02:59  
щодо логу ні, щодо куе - так (кривий.. треба було створити файл куе з відкоректованими проміжками... тепер прийдеться коректувати сам куе-файл)
jinotot написано:
All tracks accurately ripped

всі треки є в базі
jinotot написано:
8 track(s) accurately ripped

цей трек є
jinotot написано:
10 track(s) not present in the AccurateRip database

цього немає (дивно, то на одному диску? хоча на якість то не впливає абсолютно)
найголовніше, що
jinotot написано:
No errors occurred

тобто, помилки не траплялись

Lev 
VIP


З нами з: 14.10.09
Востаннє: 05.12.16
Повідомлень: 1819

2011-02-03 10:27  
о, класно, свіжачок нарешті у лосі Happy
jinotot 
Почесний оцифрувальник літератури


З нами з: 28.01.09
Востаннє: 04.12.16
Повідомлень: 3235

2011-02-03 18:10  
ssTAss написано:
всі треки є в базі
В якій базі? Happy
ssTAss написано:
дивно, то на одному диску?
Так, на одному.
ssTAss написано:
треба було створити файл куе з відкоректованими проміжками... тепер прийдеться коректувати сам куе-файл
Що мається на увазі? Як то зробити? І чи не пізно ще переробити — зміниться ж тільки куе-файл, правильно?
jinotot 
Почесний оцифрувальник літератури


З нами з: 28.01.09
Востаннє: 04.12.16
Повідомлень: 3235

2011-02-04 17:05  
Так, щодо бази я трохи розібрався — в неї заносяться дані про вже ріпнуті диски і якщо ріпаєш щось, що вже хтось ріпнув до тебе і заніс про це інфу в цю базу, то воно тобі й пише:
Цитата:
All tracks accurately ripped
Так?

Тепер щодо куе. Наразі я зрозумів, що потрібно в них змінити, наприклад, оце:
Цитата:
FILE "01 - На добраніч.wav" WAVE
на отаке:
Цитата:
FILE "01 - На добраніч.flac" FLAC
І так в кожному треці.
Також я зрозумів, що потрібно зберегти додатково ще один куе і замість Даха-Браха - На добраніч (2006).cue обізвати його Даха-Браха - На добраніч (2006).flac.cue, при цьому бажано зберегти обидва в utf-8, так?
А що ще? Бо маю підозру, що тут не все так просто Happy
Тож, люди добрі, прошу — допоможіть інвалідові гуманітарної освіти освоїти цю премудрість! Rolleyes (2)
А я вам за це ріпну ще багато хороших дисків Wide grin

ssTAss 
Модератор музики


З нами з: 05.07.08
Востаннє: 08.12.16
Повідомлень: 10947

2011-02-05 19:23  
jinotot написано:
FILE "01 - На добраніч.flac" FLAC

ні
ось так
FILE "01 - На добраніч.flac" WAVE
але дійсно не все так просто))
і все одно не буде читатись (але цей куе не рухайте, він потрібен для запису)
для слухання треба використовувати файл-плейліст (.m3u) або в вашому випадку створити новий куе в ЕАК-у "Дії - Створити файл куе - Багато файлів WAV з відкоректованими проміжками" або просто "Аlt+O"
потім замінити вав на флак, назвати (так як Ви сказали nazva.flac.cue) і помістити в ту ж папку.. все, користуйтесь

Додано через 2 хвилини 44 секунди:

P.S. все-таки краще знімати образом.. геморою менше))

Swirl 
Оцифрування книг Гуртом
Оцифрування книг Гуртом


З нами з: 12.10.09
Востаннє: 24.02.15
Повідомлень: 495

2011-02-06 13:41  
Ще 1 день і нарешті завантажу Wide grin
Юрій Дмитрович 
Частий відвідувач


З нами з: 15.08.09
Востаннє: 14.11.16
Повідомлень: 40

2011-02-06 14:54  
Дуже сподобалося оформлення опису виконавців!
Дякую!!!

jinotot 
Почесний оцифрувальник літератури


З нами з: 28.01.09
Востаннє: 04.12.16
Повідомлень: 3235

2011-02-06 16:42  
Юрій Дмитрович написано:
Дуже сподобалося оформлення опису виконавців!
Дякую, я старався Rolleyes (2)
Щоправда, то більше не моя заслуга, а BBCode, бо він так розмістив то все.

Swirl написано:
Ще 1 день і нарешті завантажу
То я зрадницьки тікаю у вінду останнім часом, а звідти не роздаю, тому й так довго йде віддача. Постараюсь дороздати сьогодні — призупинив кілька активних роздач. Якщо сильно треба, можу лишити на ніч.
nam 
Новенький


З нами з: 30.07.10
Востаннє: 16.10.12
Повідомлень: 8

2011-02-06 21:59  
Дякую за релізи.
ДахаБраха - це завжди цікаво.
Хтось має розклад їх виступів?

jinotot 
Почесний оцифрувальник літератури


З нами з: 28.01.09
Востаннє: 04.12.16
Повідомлень: 3235

2011-02-06 23:17  
nam написано:
Хтось має розклад їх виступів?
Офіційний сайт має Happy
Ваш часовий пояс: GMT + 2 Години

Нова тема   Відповісти Сторінка:  1, 2  наступна