Завантажити та скачати торренти українською


VA - Друзі мої (пісні Степана Гіги) (2001) [FLAC] | Pop

Нові коментарі

Нова тема   Відповісти
Останній раз роздавалося Myfordownloads (2016-10-05)
Автор Повідомлення
ssTAss 
Модератор музики


З нами з: 05.07.08
Востаннє: 06.12.16
Повідомлень: 10946

2013-06-30 20:35  
VA - Друзі мої (пісні Степана Гіги) (2001) [FLAC] | Pop

VA - Друзі мої (пісні Степана Гіги) (2001) [FLAC] | Pop


Стиль: Pop
Країна: Україна
Сайти: Офіційний сайт
Видавець: Студія 6 Секунд
Виконавці:
Степан Гіга, Степан Гіга (молодший), Віктор Грибик, Квітослава Гіга
Пісні:
    1 Друзі мої (В.Грибик)
    2 Ти не повірила (С.Гіга)
    3 Мальвіна і П'єро (С.Гіга молодший)
    4 У райськім саду (С.Гіга)
    5 Наталі (С.Гіга)
    6 Оберіг (С.Гіга)
    7 Біла вуаль (С.Гіга)
    8 Любов то сон (С.Гіга)
    9 Пробач (С.Гіга)
    10 У чарівних снах (Квітослава)
    11 Моє серце відпусти (Квітослава)
    12 Забудь мене (Квітослава)
    13 Радуй мене і люби (Квітослава)
    14 Повір (В.Грибик)
    15 Замріяний дивак (В.Грибик)
    16 Королева із сузір'я Лева (В.Грибик)
    17 Тобі вклонюся доленько моя (В.Грибик)

Тривалість: 01:12:33
Мова: українська
Аудіо-кодек: FLAC
Бітрейт: 900 кб/с
Джерело: інший трекер
Додаткова інформація:
log
Exact Audio Copy V1.0 beta 2 from 29. April 2011

Отчёт EAC об извлечении, выполненном 5. июня 2011, 23:46

Степан Гіга / Друзі Мої

Дисковод: HL-DT-STDVDRAM GH20NS10 Adapter: 3 ID: 0

Режим чтения : Достоверность
Использование точного потока : Да
Отключение кэша аудио : Да
Использование указателей C2 : Нет

Коррекция смещения при чтении : 667
Способность читать области Lead-in и Lead-out : Нет
Заполнение пропущенных сэмплов тишиной : Да
Удаление блоков с тишиной в начале и конце : Нет
При вычислениях CRC использовались нулевые сэмплы : Да
Интерфейс : Встроенный Win32-интерфейс для Win NT/2000

Выходной формат : Внутренние WAV-операции
Формат сэмплов : 44.100 Гц; 16 бит; стерео

TOC извлечённого CD

Трек | Старт | Длительность | Начальный сектор | Конечный сектор
---------------------------------------------------------------------
1 | 0:00.00 | 4:34.08 | 0 | 20557
2 | 4:34.08 | 6:54.74 | 20558 | 51681
3 | 11:29.07 | 4:07.15 | 51682 | 70221
4 | 15:36.22 | 6:03.30 | 70222 | 97476
5 | 21:39.52 | 5:59.45 | 97477 | 124446
6 | 27:39.22 | 3:30.63 | 124447 | 140259
7 | 31:10.10 | 3:58.40 | 140260 | 158149
8 | 35:08.50 | 3:28.74 | 158150 | 173823
9 | 38:37.49 | 4:16.74 | 173824 | 193097
10 | 42:54.48 | 3:13.16 | 193098 | 207588
11 | 46:07.64 | 3:28.50 | 207589 | 223238
12 | 49:36.39 | 3:44.49 | 223239 | 240087
13 | 53:21.13 | 3:29.15 | 240088 | 255777
14 | 56:50.28 | 3:02.43 | 255778 | 269470
15 | 59:52.71 | 3:25.33 | 269471 | 284878
16 | 63:18.29 | 3:57.17 | 284879 | 302670
17 | 67:15.46 | 5:17.28 | 302671 | 326473

Характеристики диапазона извлечения и сообщения об ошибках

Выбранный диапазон

Имя файла D:\Степан Гіга - Друзі Мої.wav

Пиковый уровень 100.0 %
Скорость извлечения 6.8 X
Качество диапазона 100.0 %
CRC теста 49891754
CRC копии 49891754
Копирование... OK

Ошибок не произошло

Конец отчёта
fooCDtect
fooCDtect - foobar2000 + auCDtect, baralgin.

auCDtect: CD records authenticity detector, version 0.8.2
Copyright (c) 2004 Oleg Berngardt. All rights reserved.
Copyright (c) 2004 Alexander Djourik. All rights reserved.

mode: 0

===========================================
Track: 01 - Друзі мої
Quality: MPEG 95%
===========================================
Track: 02 - Ти не повірила
Quality: MPEG 95%
===========================================
Track: 03 - Мальвіна і П’єро
Quality: MPEG 95%
===========================================
Track: 04 - У райскім саду
Quality: MPEG 95%
===========================================
Track: 05 - Наталі
Quality: CDDA 49%
===========================================
Track: 06 - Пробач
Quality: MPEG 95%
===========================================
Track: 07 - Біла вуаль
Quality: MPEG 95%
===========================================
Track: 08 - Любов то сон
Quality: MPEG 95%
===========================================
Track: 09 - Оберіг
Quality: MPEG 95%
===========================================
Track: 10 - У чарівних снах
Quality: CDDA 62%
===========================================
Track: 11 - Моє серце відпусти
Quality: CDDA 43%
===========================================
Track: 12 - Забудь мене
Quality: MPEG 89%
===========================================
Track: 13 - Радуй мене і люби
Quality: CDDA 92%
===========================================
Track: 14 - Повір
Quality: MPEG 95%
===========================================
Track: 15 - Замріяний дивак
Quality: MPEG 95%
===========================================
Track: 16 - Королева із сузір’я Лева
Quality: MPEG 89%
===========================================
Track: 17 - Тобі вклонюся, доленько моя
Quality: MPEG 95%
===========================================


Якщо Ви справді бажаєте підтримати українське - після прослуховування, якщо музика вам сподобалась,
придбайте ліцензійний диск.
Підтримаймо вітчизняних виконавців!


Срібний реліз (на рейтинг впливає 50% завантаженого)
 Трекер:    Зареєстрований   

Завантажити / скачати українську музику



відео для новачків



 Зареєстрований:   2013-06-30 20:35
 Розмір:   467 MB 
 Оцінка музики:   6.6/10 (Голосів: 8)
   
ssTAss 
Модератор музики


З нами з: 05.07.08
Востаннє: 06.12.16
Повідомлень: 10946

2013-06-30 20:38  
Jura18 
Новенький


З нами з: 28.05.11
Востаннє: 14.11.15
Повідомлень: 5

2013-07-12 12:19  
Земляк!
Ваш часовий пояс: GMT + 2 Години

Нова тема   Відповісти