Завантажити та скачати торренти українською


Оксана Білозір - Подивись мені в очі (2007) [APE] | Pop

Нові коментарі

Нова тема   Відповісти
Останній раз роздавалося wuzicka (2016-11-27)
Автор Повідомлення
ssTAss 
Модератор музики


З нами з: 05.07.08
Востаннє: 03.12.16
Повідомлень: 10930

2013-06-30 19:49  
Оксана Білозір - Подивись мені в очі (2007) [APE] | Pop

Оксана Білозір - Подивись мені в очі (2007) [APE] | Pop


Стиль: Pop
Країна, місто: Україна, смт. Смига
Сайти: Офіційний сайт
Видавець: Golden Music.ua
Виконавці:
Білозір Оксана Володимирівна
Пісні:
    1. Тільки для тебе
    2. Чар зілля
    3. Щастя
    4. Подивись мені в очі
    5. Очі волошкові
    6. Думала
    7. Сторона моя
    8. Місяць світить
    9. Загадай бажання
    10. Благословенна будь
    11. Найкраще місто
    12. Слава Україні
    13. Свіча
    14. Молитва
    Бонус:
    15. Свіча (відео)

    Тривалість: 00:03:09
    Відео:
    кодек: mpeg-4
    розмір кадру: 720 х 576
    бітрейт: 1860 кб/с

    Аудіо:
    мова: українська
    кодек:
    бітрейт: 448 кб/с
    кадри

Тривалість: 00:53:45
Мова: українська
Аудіо-кодек: APE
Бітрейт: 896 кб/с
Джерело: рутрекер
Додаткова інформація:
log
Exact Audio Copy V0.99 prebeta 4 from 23. January 2008

Отчёт EAC об извлечении, выполненном 21. января 2009, 14:37

Оксана Білозір / Подивись мені в очі

Дисковод: HL-DT-STDVDRAM GSA-4167B Adapter: 0 ID: 0

Режим чтения : Достоверность
Использование точного потока : Да
Отключение кэша аудио : Да
Использование указателей C2 : Нет

Коррекция смещения при чтении : 667
Способность читать области Lead-in и Lead-out : Нет
Заполнение пропущенных сэмплов тишиной : Да
Удаление блоков с тишиной в начале и конце : Нет
При вычислениях CRC использовались нулевые сэмплы : Да
Интерфейс : Встроенный Win32-интерфейс для Win NT/2000

Выходной формат : Внутренние WAV-операции
Формат сэмплов : 44.100 Гц; 16 бит; стерео

TOC извлечённого CD

Трек | Старт | Длительность | Начальный сектор | Конечный сектор
---------------------------------------------------------------------
1 | 0:00.00 | 3:37.45 | 0 | 16319
2 | 3:37.45 | 3:29.00 | 16320 | 31994
3 | 7:06.45 | 3:33.15 | 31995 | 47984
4 | 10:39.60 | 4:42.09 | 47985 | 69143
5 | 15:21.69 | 3:26.54 | 69144 | 84647
6 | 18:48.48 | 3:53.30 | 84648 | 102152
7 | 22:42.03 | 3:58.37 | 102153 | 120039
8 | 26:40.40 | 3:27.44 | 120040 | 135608
9 | 30:08.09 | 3:46.55 | 135609 | 152613
10 | 33:54.64 | 3:58.00 | 152614 | 170463
11 | 37:52.64 | 2:48.47 | 170464 | 183110
12 | 40:41.36 | 5:13.06 | 183111 | 206591
13 | 45:54.42 | 3:06.27 | 206592 | 220568
14 | 49:00.69 | 4:44.39 | 220569 | 241907
15 | 56:17.33 | 5:59.60 | 253308 | 280292

Характеристики диапазона извлечения и сообщения об ошибках

Выбранный диапазон

Имя файла E:\Билозир\Оксана Білозір - Подивись мені в очі.wav

Пиковый уровень 100.0 %
Качество диапазона 100.0 %
CRC копии 7D395B98
Копирование... OK

Ошибок не произошло

Конец отчёта
fooCDtect
fooCDtect - foobar2000 + auCDtect, baralgin.

auCDtect: CD records authenticity detector, version 0.8.2
Copyright (c) 2004 Oleg Berngardt. All rights reserved.
Copyright (c) 2004 Alexander Djourik. All rights reserved.

mode: 0

===========================================
Track: 01 - Тільки для тебе
Quality: MPEG 95%
===========================================
Track: 02 - Чар зілля
Quality: MPEG 95%
===========================================
Track: 03 - Щастя
Quality: MPEG 95%
===========================================
Track: 04 - Подивись мені в очі
Quality: MPEG 95%
===========================================
Track: 05 - Очі волошкові
Quality: CDDA 100%
===========================================
Track: 06 - Думала
Quality: MPEG 95%
===========================================
Track: 07 - Сторона моя
Quality: MPEG 95%
===========================================
Track: 08 - Місяць світить
Quality: CDDA 100%
===========================================
Track: 09 - Загадай бажання
Quality: CDDA 100%
===========================================
Track: 10 - Благословенна будь
Quality: Unknown
===========================================
Track: 11 - Найкраще місто
Quality: MPEG 100%
===========================================
Track: 12 - Слава Україні
Quality: CDDA 100%
===========================================
Track: 13 - Свіча
Quality: CDDA 100%
===========================================
Track: 14 - Молитва
Quality: CDDA 100%
===========================================
Уже доволі багато часу минуло з тих пір, як Оксана Білозір таки покинула посаду міністра культури України та повернулася до творчої роботи. І, як не крути, це – на краще. Зрештою, адміністративний, організаційний талант не має нічого спільного із талантом співочим – тому не так і часто подібні речі нормально уживаються в одній людині. І, в будь-якому разі, подібне співіснування практично завжди негативно впливає на творчу частину якостей – ділові якості ушкодити значно важче. Мабуть, саме тому тільки тепер Оксана Білозір спромоглася не тільки перевидати попередні роботи, а і записати одразу дві нові платівки. Одну з них Ви бачите зараз перед собою – цікаво, наприклад, що тут можна почути результат співпраці з Дмитром Ципердюком (він останнім часом особливо відомий роботою в проекті Dazzle Dreams). І другу платівку теж можна буде знайти десь поряд – це спільна робота із акапельним ансамблем ManSound, альбом має назву "Під облачком". Крім того, має побачити світ і DVD Оксани Білозір – словом, її творче життя не просто повернулося "на круги своя", а й завирувало з новою силою. Результати – слухайте.


Якщо Ви справді бажаєте підтримати українське - після прослуховування, якщо музика вам сподобалась,
придбайте ліцензійний диск.
Підтримаймо вітчизняних виконавців!


Срібний реліз (на рейтинг впливає 50% завантаженого)
 Трекер:    Зареєстрований   

Завантажити / скачати українську музику



відео для новачків



 Зареєстрований:   2013-06-30 19:49
 Розмір:   397 MB 
 Оцінка музики:   8.4/10 (Голосів: 17)
   
mr.killer 
Свій


З нами з: 11.08.10
Востаннє: 03.12.16
Повідомлень: 146

2016-08-31 17:09  
сканами хтось може поділитися?
Ваш часовий пояс: GMT + 2 Години

Нова тема   Відповісти