Завантажити та скачати торренти українською


Українські Барви - Колекція (3 альбоми) (2003) [APE] | Folk

Нові коментарі

Нова тема   Відповісти
Автор Повідомлення
civ 
VIP


З нами з: 16.02.11
Востаннє: 05.12.16
Повідомлень: 429

2013-06-30 09:20  
Українські Барви - Колекція (3 альбоми) (2003) [APE] | Folk

Стиль: Folk
Країна, місто: Україна, Київ
Сайти: Офіційний сайт
Виконавці:
Оксана Стебельська - керівник, скрипка, спів, декламація
Роман Кука - кларнет, спів, телинка, сопілка
В’ячеслав Філонов - скрипка
Михайло Кашук - баян
Віночок (2003)


Видавець: Атлантік
Пісні:
    01. Де ж ти їдеш, Янічку
    02. Колискова
    03. За Дунаєм
    04. Там за гаєм
    05. Український рок-н-рол
    06. Ой, на Івана
    07. Ти до мене не ходи
    08. Танок
    09. Майєран
    10. Заспіваю си співанку
    11. Ой там у Львові

Тривалість: 00:43:13
Мова: українська
Аудіо-кодек: APE
Бітрейт: 778 кб/с
Джерело: компакт-диск
Тип ріпу: image + cue + обкладинки
EAC Log

Exact Audio Copy V1.0 beta 3 from 29. August 2011

EAC extraction logfile from 13. January 2013, 14:08

Українські Барви / Віночок

Used drive : MATSHITADVD-RAM UJ8C1 Adapter: 1 ID: 0

Read mode : Secure
Utilize accurate stream : Yes
Defeat audio cache : Yes
Make use of C2 pointers : No

Read offset correction : 6
Overread into Lead-In and Lead-Out : No
Fill up missing offset samples with silence : Yes
Delete leading and trailing silent blocks : No
Null samples used in CRC calculations : Yes
Used interface : Native Win32 interface for Win NT & 2000

Used output format : Internal WAV Routines
Sample format : 44.100 Hz; 16 Bit; Stereo

TOC of the extracted CD

Track | Start | Length | Start sector | End sector
---------------------------------------------------------
1 | 0:00.00 | 1:48.12 | 0 | 8111
2 | 1:48.12 | 4:41.14 | 8112 | 29200
3 | 6:29.26 | 2:21.15 | 29201 | 39790
4 | 8:50.41 | 4:38.43 | 39791 | 60683
5 | 13:29.09 | 2:11.09 | 60684 | 70517
6 | 15:40.18 | 3:13.17 | 70518 | 85009
7 | 18:53.35 | 1:51.51 | 85010 | 93385
8 | 20:45.11 | 3:17.46 | 93386 | 108206
9 | 24:02.57 | 3:05.20 | 108207 | 122101
10 | 27:08.02 | 4:34.34 | 122102 | 142685
11 | 31:42.36 | 2:30.39 | 142686 | 153974

Range status and errors

Selected range

Filename D:\Music\Українські Барви - Віночок\Українські Барви - Віночок.wav

Peak level 100.0 %
Extraction speed 4.3 X
Range quality 100.0 %
Copy CRC 194DB8ED
Copy OK

No errors occurred

End of status report
Audiochecker

fooCDtect - foobar2000 + auCDtect, baralgin.

auCDtect: CD records authenticity detector, version 0.8.2
Copyright (c) 2004 Oleg Berngardt. All rights reserved.
Copyright (c) 2004 Alexander Djourik. All rights reserved.

mode: 0

===========================================
Track: 01. Де ж ти їдеш, Янічку
Quality: CDDA 100%
===========================================
Track: 02. Колискова
Quality: CDDA 100%
===========================================
Track: 03. За Дунаєм
Quality: CDDA 100%
===========================================
Track: 04. Там за гаєм
Quality: CDDA 100%
===========================================
Track: 05. Український рок-н-рол
Quality: CDDA 100%
===========================================
Track: 06. Ой, на Івана
Quality: CDDA 100%
===========================================
Track: 07. Ти до мене не ходи
Quality: CDDA 100%
===========================================
Track: 08. Танок
Quality: CDDA 100%
===========================================
Track: 09. Майєран
Quality: CDDA 100%
===========================================
Track: 10. Заспіваю си співанку
Quality: CDDA 99%
===========================================
Track: 11. Ой там у Львові
Quality: CDDA 100%
===========================================
Додаткова інформація:
Не вперше вже представляємо ми Вашій увазі київський колектив "Українські барви". Чесно кажучи, чим далі, тим приємніше це робити. Вони ставляться до пісні з легко відчутною ніжністю. Сказав би навіть, з правильністю. Це не просто технічні професіонали. Пісні у їхньому виконанні набувають такої проникливості, якої важко не помітити. Вони зворушують. Причому неважливо, слухаєте Ви жвавий "Український рок-н-рол", неквапливо-глибоку "Ой, на Івана" чи ще якоїсь. Усі вони торкають душу, хоча й по різному. Усі вони – наближення до радості.

Умка
Шуміла ліщина (2003)


Видавець: Атлантік
Пісні:
    01. Шуміла ліщина
    02. Їду собі тай думаю
    03. Ти до мене не ходи
    04. Марічка
    05. Ой хмариться, туманиться
    06. Я піду в далекі гори
    07. Ти з любові собі не жартуй

Тривалість: 00:26:39
Мова: українська
Аудіо-кодек: APE
Бітрейт: 832 кб/с
Джерело: компакт-диск
Тип ріпу: image + cue + обкладинки
EAC Log

Exact Audio Copy V1.0 beta 3 from 29. August 2011

EAC extraction logfile from 13. January 2013, 13:56

Українські Барви / Шуміла ліщина

Used drive : MATSHITADVD-RAM UJ8C1 Adapter: 1 ID: 0

Read mode : Secure
Utilize accurate stream : Yes
Defeat audio cache : Yes
Make use of C2 pointers : No

Read offset correction : 6
Overread into Lead-In and Lead-Out : No
Fill up missing offset samples with silence : Yes
Delete leading and trailing silent blocks : No
Null samples used in CRC calculations : Yes
Used interface : Native Win32 interface for Win NT & 2000

Used output format : Internal WAV Routines
Sample format : 44.100 Hz; 16 Bit; Stereo

TOC of the extracted CD

Track | Start | Length | Start sector | End sector
---------------------------------------------------------
1 | 0:00.00 | 2:39.14 | 0 | 11938
2 | 2:39.14 | 3:30.25 | 11939 | 27713
3 | 6:09.39 | 1:55.35 | 27714 | 36373
4 | 8:04.74 | 4:18.06 | 36374 | 55729
5 | 12:23.05 | 2:48.41 | 55730 | 68370
6 | 15:11.46 | 4:22.23 | 68371 | 88043
7 | 19:33.69 | 7:05.07 | 88044 | 119925

Range status and errors

Selected range

Filename D:\Music\Українські Барви - Шуміла ліщина\Українські Барви - Шуміла ліщина.wav

Peak level 100.0 %
Extraction speed 3.7 X
Range quality 100.0 %
Copy CRC CDB68456
Copy OK

No errors occurred

End of status report
Audiochecker

fooCDtect - foobar2000 + auCDtect, baralgin.

auCDtect: CD records authenticity detector, version 0.8.2
Copyright (c) 2004 Oleg Berngardt. All rights reserved.
Copyright (c) 2004 Alexander Djourik. All rights reserved.

mode: 0

===========================================
Track: 01. Шуміла ліщина
Quality: CDDA 100%
===========================================
Track: 02. Їду собі тай думаю
Quality: CDDA 100%
===========================================
Track: 03. Ти до мене не ходи
Quality: CDDA 100%
===========================================
Track: 04. Марічка
Quality: CDDA 100%
===========================================
Track: 05. Ой хмариться, туманиться
Quality: CDDA 100%
===========================================
Track: 06. Я піду в далекі гори
Quality: CDDA 100%
===========================================
Track: 07. Ти з любові собі не жартуй
Quality: CDDA 100%
===========================================
Додаткова інформація:
Особисто мені цей колектив сподобався ще з першого мною почутого альбому – "Від Різдва до Різдва". І з тих пір "Українські барви" кожного разу приємно дивують легкістю, невимушеністю свого натхнення. У всякому разі, так я це відчуваю. Вони виконують народні і авторські пісні, обрядову, сучасну, класичну, давню церковну музику – і роблять це тонко, тендітно. Їхні альбоми хочеться слухати знов і знов – хоча б тому, що в цій музиці немає фальші, удаваності. Кожен з учасників колективу – майстер на своєму місці. Мабуть, саме тому плоди їхньої творчості такі гармонійні та привітні.

Умка
Етно MIX (2007)


Видавець: гурт
Пісні:
    01. Гуцульська збиранка
    02. Коло церкви корито
    03. Не забудь
    04. В гаю зелененькім
    05. Як я сено грабала зелене
    06. Ой горами волоньки
    07. Кед ми прийшла карта
    08. Рано, як сонечко сходило
    09. Спи маленький козачок
    10. Коломийки
    11. Жайвір
    12. В райськім городі
    13. Їдемо санками
    14. Я Христинка українках

Тривалість: 00:47:50
Мова: українська, інструментальна (11)
Аудіо-кодек: APE
Бітрейт: 830 кб/с
Джерело: компакт-диск
Тип ріпу: image + cue + обкладинки
EAC Log

Exact Audio Copy V0.99 prebeta 3 from 28. July 2007

EAC extraction logfile from 15. June 2013, 0:37

Українські Барви / Етно MIX

Used drive : HL-DT-STDVDRAM GSA-4167B Adapter: 0 ID: 1

Read mode : Secure
Utilize accurate stream : Yes
Defeat audio cache : Yes
Make use of C2 pointers : No

Read offset correction : 0
Overread into Lead-In and Lead-Out : No
Fill up missing offset samples with silence : Yes
Delete leading and trailing silent blocks : No
Null samples used in CRC calculations : Yes
Used interface : Native Win32 interface for Win NT & 2000

Used output format : User Defined Encoder
Selected bitrate : 896 kBit/s
Quality : High
Add ID3 tag : No
Command line compressor : C:\Program Files\Exact Audio Copy\Flac\flac.exe
Additional command line options : -8 -V -T "ARTIST=%a" -T "TITLE=%t" -T "ALBUM=%g" -T "DATE=%y" -T "TRACKNUMBER=%n" -T "GENRE=%m" -T "COMMENT=%e" %s -o %d

TOC of the extracted CD

Track | Start | Length | Start sector | End sector
---------------------------------------------------------
1 | 0:00.00 | 3:20.26 | 0 | 15025
2 | 3:20.26 | 2:24.30 | 15026 | 25855
3 | 5:44.56 | 2:50.40 | 25856 | 38645
4 | 8:35.21 | 4:02.07 | 38646 | 56802
5 | 12:37.28 | 3:39.54 | 56803 | 73281
6 | 16:17.07 | 3:15.34 | 73282 | 87940
7 | 19:32.41 | 4:43.63 | 87941 | 109228
8 | 24:16.29 | 2:55.70 | 109229 | 122423
9 | 27:12.24 | 4:54.15 | 122424 | 144488
10 | 32:06.39 | 3:59.59 | 144489 | 162472
11 | 36:06.23 | 2:45.06 | 162473 | 174853
12 | 38:51.29 | 3:25.43 | 174854 | 190271
13 | 42:16.72 | 3:15.26 | 190272 | 204922
14 | 45:32.23 | 2:17.65 | 204923 | 215262

Range status and errors

Selected range

Filename D:\2007 Українські Барви. Етно MIX [FLAC]\Українські Барви - Етно MIX.wav

Peak level 100.0 %
Range quality 100.0 %
Copy CRC 4C789345
Copy OK

No errors occurred

End of status report
Audiochecker

fooCDtect - foobar2000 + auCDtect, baralgin.

auCDtect: CD records authenticity detector, version 0.8.2
Copyright (c) 2004 Oleg Berngardt. All rights reserved.
Copyright (c) 2004 Alexander Djourik. All rights reserved.

mode: 0

===========================================
Track: 01. Гуцульська збиранка
Quality: CDDA 100%
===========================================
Track: 02. Коло церкви корито
Quality: CDDA 100%
===========================================
Track: 03. Не забудь
Quality: CDDA 100%
===========================================
Track: 04. В гаю зелененькім
Quality: CDDA 99%
===========================================
Track: 05. Як я сено грабала зелене
Quality: CDDA 100%
===========================================
Track: 06. Ой горами волоньки
Quality: CDDA 100%
===========================================
Track: 07. Кед ми прийшла карта
Quality: CDDA 100%
===========================================
Track: 08. Рано, як сонечко сходило
Quality: CDDA 99%
===========================================
Track: 09. Спи маленький козачок
Quality: CDDA 100%
===========================================
Track: 10. Коломийки
Quality: CDDA 100%
===========================================
Track: 11. Жайвір
Quality: CDDA 100%
===========================================
Track: 12. В райськім городі
Quality: CDDA 99%
===========================================
Track: 13. Їдемо санками
Quality: CDDA 100%
===========================================
Track: 14. Я Христинка українка
Quality: CDDA 100%
===========================================
Тривалість: 01:53:04
Мова: українська
Аудіо-кодек: APE
Бітрейт: 778-832 кб/с
Джерело: компакт-диск
Тип ріпу: image + cue + обкладинки



Якщо Ви справді бажаєте підтримати українське - після прослуховування, якщо музика вам сподобалась, придбайте ліцензійний диск. Підтримаймо вітчизняних виконавців!


Срібний реліз (на рейтинг впливає 50% завантаженого)
 Трекер:    Зареєстрований   

Завантажити / скачати українську музику



відео для новачків



 Зареєстрований:   2013-08-28 19:30
 Розмір:   724 MB 
 Оцінка музики:   10/10 (Голосів: 4)
   
civ 
VIP


З нами з: 16.02.11
Востаннє: 05.12.16
Повідомлень: 429

2013-08-28 19:32  
Роздача оновлена! Дякуючи користувачу fv007 маємо альбом Етно MIX (2007) у lossless. :-)
Ваш часовий пояс: GMT + 2 Години

Нова тема   Відповісти