Завантажити та скачати торренти українською


Ерко - Колекція (2 альбоми) (2005) [APE] | Chanson

Нові коментарі

Нова тема   Відповісти
Автор Повідомлення
civ 
VIP


З нами з: 16.02.11
Востаннє: 02.12.16
Повідомлень: 428

2013-06-30 08:59  
Ерко - Колекція (2 альбоми) (2005) [APE] | Chanson

Стиль: Chanson
Країна, місто: США
Виконавці: Северин Палидович
Будьмо! Ще хоч раз!.. (2005)


Видавець: UKRmusic
Пісні:
    01. Лети, тужлива пісне
    02. Била її мати
    03. Місяць на небі
    04. Я піду в далекі гори
    05. Чорноморське танго
    06. Спогадай, дівчино
    07. Росте черешня в мами на городі
    08. Свята ніч
    09. Романс
    10. Ліщина
    11. Сон
    12. Чорна коса
    13. Ой, чорна вона, чорна
    14. Дві долі
    15. Ніч така, Господи
    16. Я до тебе іду
    17. Ти ж мене підманула
    18. Як тебе не любити
    19. Знов на полонину йду
    20. Чи справді

Тривалість: 01:12:36
Мова: українська
Аудіо-кодек: APE
Бітрейт: 586 кб/с
Джерело: компакт-диск
Тип ріпу: image + cue + обкладинки
EAC Log

Exact Audio Copy V1.0 beta 3 from 29. August 2011

EAC extraction logfile from 13. January 2013, 16:08

Ерко / Будьмо! Ще хоч раз!..

Used drive : MATSHITADVD-RAM UJ8C1 Adapter: 1 ID: 0

Read mode : Secure
Utilize accurate stream : Yes
Defeat audio cache : Yes
Make use of C2 pointers : No

Read offset correction : 6
Overread into Lead-In and Lead-Out : No
Fill up missing offset samples with silence : Yes
Delete leading and trailing silent blocks : No
Null samples used in CRC calculations : Yes
Used interface : Native Win32 interface for Win NT & 2000

Used output format : Internal WAV Routines
Sample format : 44.100 Hz; 16 Bit; Stereo

TOC of the extracted CD

Track | Start | Length | Start sector | End sector
---------------------------------------------------------
1 | 0:00.00 | 3:25.73 | 0 | 15447
2 | 3:25.73 | 3:12.16 | 15448 | 29863
3 | 6:38.14 | 3:05.09 | 29864 | 43747
4 | 9:43.23 | 3:37.54 | 43748 | 60076
5 | 13:21.02 | 4:02.22 | 60077 | 78248
6 | 17:23.24 | 3:23.38 | 78249 | 93511
7 | 20:46.62 | 3:59.07 | 93512 | 111443
8 | 24:45.69 | 2:57.38 | 111444 | 124756
9 | 27:43.32 | 3:33.25 | 124757 | 140756
10 | 31:16.57 | 3:57.07 | 140757 | 158538
11 | 35:13.64 | 3:32.26 | 158539 | 174464
12 | 38:46.15 | 4:03.67 | 174465 | 192756
13 | 42:50.07 | 2:46.37 | 192757 | 205243
14 | 45:36.44 | 3:18.60 | 205244 | 220153
15 | 48:55.29 | 3:14.52 | 220154 | 234755
16 | 52:10.06 | 3:39.60 | 234756 | 251240
17 | 55:49.66 | 4:46.44 | 251241 | 272734
18 | 60:36.35 | 3:45.52 | 272735 | 289661
19 | 64:22.12 | 5:03.44 | 289662 | 312430
20 | 69:25.56 | 3:10.43 | 312431 | 326723

Range status and errors

Selected range

Filename D:\Music\Ерко - Будьмо! Ще хоч раз!\Ерко - Будьмо! Ще хоч раз!...wav

Peak level 100.0 %
Extraction speed 5.2 X
Range quality 100.0 %
Copy CRC 76A3F94B
Copy OK

No errors occurred

End of status report
Audiochecker

fooCDtect - foobar2000 + auCDtect, baralgin.

auCDtect: CD records authenticity detector, version 0.8.2
Copyright (c) 2004 Oleg Berngardt. All rights reserved.
Copyright (c) 2004 Alexander Djourik. All rights reserved.

mode: 0

===========================================
Track: 01. Лети, тужлива пісне
Quality: MPEG 95%
===========================================
Track: 02. Била її мати
Quality: MPEG 95%
===========================================
Track: 03. Місяць на небі
Quality: MPEG 95%
===========================================
Track: 04. Я піду в далекі гори
Quality: MPEG 95%
===========================================
Track: 05. Чорноморське танго
Quality: MPEG 95%
===========================================
Track: 06. Спогадай, дівчино
Quality: MPEG 95%
===========================================
Track: 07. Росте черешня в мами на городі
Quality: MPEG 95%
===========================================
Track: 08. Свята ніч
Quality: MPEG 95%
===========================================
Track: 09. Романс
Quality: MPEG 95%
===========================================
Track: 10. Ліщина
Quality: MPEG 95%
===========================================
Track: 11. Сон
Quality: MPEG 95%
===========================================
Track: 12. Чорна коса
Quality: MPEG 95%
===========================================
Track: 13. Ой, чорна вона, чорна
Quality: MPEG 95%
===========================================
Track: 14. Дві долі
Quality: MPEG 95%
===========================================
Track: 15. Ніч така, Господи
Quality: MPEG 95%
===========================================
Track: 16. Я до тебе іду
Quality: MPEG 95%
===========================================
Track: 17. Ти ж мене підманула
Quality: MPEG 95%
===========================================
Track: 18. Як тебе не любити
Quality: MPEG 95%
===========================================
Track: 19. Знов на полонину йду
Quality: MPEG 95%
===========================================
Track: 20. Чи справді
Quality: MPEG 95%
===========================================
Додаткова інформація:
Багато сказано у літературі про російську душу та тугу, але цього разу поговоримо про українське. Ерко якось стиха, ненав’язливо ставить цікаві питання. На цьому альбомі – до речі, вже другому – пісні у його виконанні звучать так, як, мабуть, вони мали б звучати десь у паризькій каварні з вуст емігранта, який не може й не хоче забути свою Украйну. Є у всьому цьому якась благородна зажура і, водночас, приваблива простота, вогонь, який не обпікає, але обережно висвітлює обличчя та пейзажі. Здається, так може тужити мандрівний циган за батьківщиною, якої він не пам’ятає, але кожної ночі бачить уві сні - і най Ви не побачите у цих сентенціях протиріччя.

Умка
Конвалії білі (2005)


Видавець: UKRmusic
Пісні:
    01. Конвалії білі
    02. Рушив поїзд
    03. Розкажи мені
    04. Рушничок
    05. Солоний вітер
    06. Смерекова хата
    07. Два голуби
    08. Черемшина
    09. Чом в тебе
    10. Ой, смереко
    11. Ясени
    12. Стояв гуцул
    13. Дві троянди
    14. Старість, зажди
    15. Червона рута
    16. Писаний камінь
    17. Зоре…
    18. Волошки
    19. Гарі-гарі…
    20. На вигоні
    21. Будь здорова!

Тривалість: 01:08:43
Мова: українська
Аудіо-кодек: APE
Бітрейт: 712 кб/с
Джерело: компакт-диск
Тип ріпу: image + cue + обкладинки
EAC Log

Exact Audio Copy V1.0 beta 3 from 29. August 2011

EAC extraction logfile from 13. January 2013, 15:43

Ерко / Конвалії білі

Used drive : MATSHITADVD-RAM UJ8C1 Adapter: 1 ID: 0

Read mode : Secure
Utilize accurate stream : Yes
Defeat audio cache : Yes
Make use of C2 pointers : No

Read offset correction : 6
Overread into Lead-In and Lead-Out : No
Fill up missing offset samples with silence : Yes
Delete leading and trailing silent blocks : No
Null samples used in CRC calculations : Yes
Used interface : Native Win32 interface for Win NT & 2000

Used output format : Internal WAV Routines
Sample format : 44.100 Hz; 16 Bit; Stereo

TOC of the extracted CD

Track | Start | Length | Start sector | End sector
---------------------------------------------------------
1 | 0:00.00 | 3:28.54 | 0 | 15653
2 | 3:28.54 | 3:29.00 | 15654 | 31328
3 | 6:57.54 | 2:54.09 | 31329 | 44387
4 | 9:51.63 | 2:31.60 | 44388 | 55772
5 | 12:23.48 | 5:06.42 | 55773 | 78764
6 | 17:30.15 | 4:36.51 | 78765 | 99515
7 | 22:06.66 | 3:16.01 | 99516 | 114216
8 | 25:22.67 | 2:57.34 | 114217 | 127525
9 | 28:20.26 | 4:31.54 | 127526 | 147904
10 | 32:52.05 | 3:14.49 | 147905 | 162503
11 | 36:06.54 | 4:15.66 | 162504 | 181694
12 | 40:22.45 | 2:49.10 | 181695 | 194379
13 | 43:11.55 | 3:39.35 | 194380 | 210839
14 | 46:51.15 | 2:11.18 | 210840 | 220682
15 | 49:02.33 | 3:14.19 | 220683 | 235251
16 | 52:16.52 | 3:39.36 | 235252 | 251712
17 | 55:56.13 | 3:12.27 | 251713 | 266139
18 | 59:08.40 | 3:02.10 | 266140 | 279799
19 | 62:10.50 | 2:15.45 | 279800 | 289969
20 | 64:26.20 | 1:56.34 | 289970 | 298703
21 | 66:22.54 | 2:20.29 | 298704 | 309232

Range status and errors

Selected range

Filename D:\Music\Ерко - Конвалії білі\Ерко - Конвалії білі.wav

Peak level 100.0 %
Extraction speed 5.1 X
Range quality 99.9 %
Copy CRC 48678B56
Copy OK

No errors occurred

End of status report
Audiochecker

fooCDtect - foobar2000 + auCDtect, baralgin.

auCDtect: CD records authenticity detector, version 0.8.2
Copyright (c) 2004 Oleg Berngardt. All rights reserved.
Copyright (c) 2004 Alexander Djourik. All rights reserved.

mode: 0

===========================================
Track: 01. Конвалії білі
Quality: MPEG 95%
===========================================
Track: 02. Рушив поїзд
Quality: MPEG 95%
===========================================
Track: 03. Розкажи мені
Quality: MPEG 95%
===========================================
Track: 04. Рушничок
Quality: MPEG 95%
===========================================
Track: 05. Солоний вітер
Quality: MPEG 95%
===========================================
Track: 06. Смерекова хата
Quality: MPEG 95%
===========================================
Track: 07. Два голуби
Quality: MPEG 95%
===========================================
Track: 08. Черемшина
Quality: MPEG 95%
===========================================
Track: 09. Чом в тебе
Quality: MPEG 95%
===========================================
Track: 10. Ой, смереко
Quality: MPEG 95%
===========================================
Track: 11. Ясени
Quality: MPEG 95%
===========================================
Track: 12. Стояв гуцул
Quality: MPEG 95%
===========================================
Track: 13. Дві троянди
Quality: MPEG 95%
===========================================
Track: 14. Старість, зажди
Quality: MPEG 95%
===========================================
Track: 15. Червона рута
Quality: MPEG 95%
===========================================
Track: 16. Писаний камінь
Quality: MPEG 95%
===========================================
Track: 17. Зоре…
Quality: MPEG 95%
===========================================
Track: 18. Волошки
Quality: MPEG 95%
===========================================
Track: 19. Гарі-гарі…
Quality: MPEG 95%
===========================================
Track: 20. На вигоні
Quality: MPEG 95%
===========================================
Track: 21. Будь здорова!
Quality: MPEG 95%
===========================================
Додаткова інформація:
В певному сенсі, цю музику можна визначити як український шансон. Зупинимося тут на його українськості. Точно так, як мова українська є більш лагідною, мелодійною, аніж, скажімо, російська – так і шансон цей не є просто шансоном у сучасному значенні, бо в нього не так вже й багато спільного з так званими "блатними", і під них стилізованими, піснями. Так, тут має місце і туга за волею, і жаль до своєї долі, але все це якесь тендітне, не жорстке, схоже на прозорі акварелі. Це стає очевидним, коли у даному контексті раптом чуєш знайомі всім до болю : "рідна мати моя, ти ночей не доспала... і в дорогу далеку ти мене на зорі проводжала, і рушник вишиваний на щастя дала..." Дещо інший ракурс, чи не так? І цей приклад – не поодинокий. До того ж – не зовсім звичний музичний супровід. Чого вартий, наприклад, той же контрабас, або ж сопілка. Веду до того, що – так, це шансон, але це український шансон, і тому він – незвичний, і тим він цікавий.

Умка
Тривалість: 02:21:19
Мова: українська
Аудіо-кодек: APE
Бітрейт: 586-712 кб/с
Джерело: компакт-диск
Тип ріпу: image + cue + обкладинки

Додаткова інформація:
Схоже, це перевидання альбому "Будьмо! Ще хоч раз!..". Бо інші джерела кажуть, що альбом був випущений у 2003 році.
Також, маємо очікуваний результат аудіочекера. Але маємо, що маємо.




Якщо Ви справді бажаєте підтримати українське - після прослуховування, якщо музика вам сподобалась, придбайте ліцензійний диск. Підтримаймо вітчизняних виконавців!


Срібний реліз (на рейтинг впливає 50% завантаженого)
 Трекер:    Зареєстрований   

Завантажити / скачати українську музику



відео для новачків



 Зареєстрований:   2013-06-30 08:59
 Розмір:   714 MB 
 Оцінка музики:   10/10 (Голосів: 4)
   
ssTAss 
Модератор музики


З нами з: 05.07.08
Востаннє: 03.12.16
Повідомлень: 10930

2013-06-30 14:32  
дуже прикро - два альбоми записані з мр3 Sad (2)
civ 
VIP


З нами з: 16.02.11
Востаннє: 02.12.16
Повідомлень: 428

2013-06-30 14:59  
Воно може бути не з мп3, а просто в домашніх якихось умовах. Тому така і якість. Воно і по звуку чути.
Ваш часовий пояс: GMT + 2 Години

Нова тема   Відповісти