Завантажити та скачати торренти українською


Злочинець / Felon (2008) 720p Ukr/Eng | sub Ukr/Eng

Нові коментарі

Нова тема   Відповісти
Автор Повідомлення
bodia87 
Відео Гуртом - фільмокрай
Відео Гуртом - фільмокрай


З нами з: 24.01.09
Востаннє: 10.12.16
Повідомлень: 468

2013-06-30 07:38  
Злочинець / Felon (2008) 720p Ukr/Eng | sub Ukr/Eng

Злочинець / Felon (2008) 720p Ukr/Eng | sub Ukr/Eng


Жанр: драма, кримінальний
Країна: США



Кінокомпанія: Stage 6 Films, Tooley Productions, Pantry Films
Режисер: Рік Роман Вог
Актори: Стівен Дорфф, Марісоль Ніколс, Вінсент Міллер, Енн Арчер, Ларнел Стовелл, Вел Кілмер, Сем Шепард

Сюжет:
Він добропорядний сім'янин у якого попереду безтурботне майбутнє, щасливий шлюб і просування по кар'єрних сходах. Але все валиться коли однієї ночі грабіжник вривається в його дім і захищаючи своє майно і родину хлопець випадково вбиває грабіжника. Суд не бере до уваги аргументи захисту та позитивні характеристики підсудного і як наслідок йому дають три роки, та ще й у в'язниці суворого режиму. Потрапивши в місце позбавлення волі він розуміє, що все його попереднє життя було справжньою казкою, і тепер він пізнає справжнє життя без правил і закону...


Тривалість: 01:44:04
Якість:
Відео:
кодек:
розмір кадру: 1280 х 688
бітрейт: 5369 кб/с

Аудіо # 1:
мова: українська
переклад: багатоголосий закадровий
кодек: 5.1
бітрейт: 448 кб/с

Аудіо # 2:
мова: англійська
переклад: оригінал
кодек: 5.1
бітрейт: 448 кб/с

Субтитри:
мова: українська
тип: програмні (м'які)
формат: *.srt

Субтитри:
мова: англійська
тип: програмні (м'які)
формат: *.srt
MediaInfo
General
Unique ID : 238020361136394420261057684579424235249 (0xB3110DD8C0DF9952932050ADF30D6EF1)
Complete name : E:\Felon (2008) 720p [ukr.eng] Hurtom.mkv
Format : Matroska
Format version : Version 4 / Version 2
File size : 4.56 GiB
Duration : 1h 44mn
Overall bit rate : 6 267 Kbps
Movie name : Ukr for Hurtom.com
Encoded date : UTC 2013-06-30 05:04:47
Writing application : mkvmerge v6.2.0 ('Promised Land') built on Apr 28 2013 12:22:01
Writing library : libebml v1.3.0 + libmatroska v1.4.0

Video
ID : 1
Format : AVC
Format/Info : Advanced Video Codec
Format profile : [email protected]
Format settings, CABAC : Yes
Format settings, ReFrames : 5 frames
Codec ID : V_MPEG4/ISO/AVC
Duration : 1h 44mn
Bit rate : 5 370 Kbps
Width : 1 280 pixels
Height : 688 pixels
Display aspect ratio : 1.85:1
Frame rate mode : Constant
Frame rate : 23.976 fps
Color space : YUV
Chroma subsampling : 4:2:0
Bit depth : 8 bits
Scan type : Progressive
Bits/(Pixel*Frame) : 0.254
Stream size : 3.81 GiB (84%)
Writing library : core 60 r928 4816918
Encoding settings : cabac=1 / ref=5 / deblock=1:0:0 / analyse=0x3:0x113 / me=umh / subme=7 / brdo=1 / mixed_ref=1 / me_range=16 / chroma_me=1 / trellis=1 / 8x8dct=1 / cqm=0 / deadzone=21,11 / chroma_qp_offset=0 / threads=6 / nr=0 / decimate=1 / mbaff=0 / bframes=3 / b_pyramid=1 / b_adapt=1 / b_bias=0 / direct=1 / wpredb=1 / bime=1 / keyint=250 / keyint_min=25 / scenecut=40(pre) / rc=2pass / bitrate=5370 / ratetol=1.0 / rceq='blurCplx^(1-qComp)' / qcomp=1.00 / qpmin=10 / qpmax=51 / qpstep=4 / cplxblur=20.0 / qblur=0.5 / ip_ratio=1.40 / pb_ratio=1.30 / aq=2:1.00
Language : English
Default : Yes
Forced : No

Audio #1
ID : 2
Format : AC-3
Format/Info : Audio Coding 3
Mode extension : CM (complete main)
Format settings, Endianness : Big
Codec ID : A_AC3
Duration : 1h 44mn
Bit rate mode : Constant
Bit rate : 448 Kbps
Channel(s) : 6 channels
Channel positions : Front: L C R, Side: L R, LFE
Sampling rate : 48.0 KHz
Bit depth : 16 bits
Compression mode : Lossy
Stream size : 333 MiB (7%)
Title : Ukr for Hurtom.com [Inter]
Language : Ukrainian
Default : Yes
Forced : No

Audio #2
ID : 3
Format : AC-3
Format/Info : Audio Coding 3
Mode extension : CM (complete main)
Format settings, Endianness : Big
Codec ID : A_AC3
Duration : 1h 44mn
Bit rate mode : Constant
Bit rate : 448 Kbps
Channel(s) : 6 channels
Channel positions : Front: L C R, Side: L R, LFE
Sampling rate : 48.0 KHz
Bit depth : 16 bits
Compression mode : Lossy
Stream size : 333 MiB (7%)
Language : English
Default : No
Forced : No

Text #1
ID : 4
Format : UTF-8
Codec ID : S_TEXT/UTF8
Codec ID/Info : UTF-8 Plain Text
Title : Українська
Language : Ukrainian
Default : Yes
Forced : No

Text #2
ID : 5
Format : UTF-8
Codec ID : S_TEXT/UTF8
Codec ID/Info : UTF-8 Plain Text
Title : English
Language : English
Default : No
Forced : No
Скріншоти









Дякую pohgejib за українські субтитри !

Джерело:
Особиста оцінка: 8 - мені сподобалося


 Трекер:    Зареєстрований   

Завантажити / скачати фільм українською



відео для новачків



 Зареєстрований:   2013-06-30 07:38
 Розмір:   4.56 GB 
 Оцінка фільму:   9.4/10 (Голосів: 8)
   
Інші релізи
   Злочинець / Felon (2008) AngryBirdsUA  3 / 0   1.45 GB   2013-06-29 06:14 
pohgejib 
VIP


З нами з: 06.06.08
Востаннє: 26.11.16
Повідомлень: 362

2013-06-30 12:45  
ех, жаль мій постер не підійшов))) фільм клас! потрібно передивитися...
zanevsky 
Свій


З нами з: 14.03.09
Востаннє: 09.12.16
Повідомлень: 85

2013-06-30 19:00  
дякую щиросердно за добре кіно… найстрашніше те, що від подібної драми ніхто не застрахований…
Ваш часовий пояс: GMT + 2 Години

Нова тема   Відповісти