Завантажити та скачати торренти українською


Павло Табаков & Orchestra Vito - Кава-Blues (2011) [FLAC] | Blues

Нові коментарі

Нова тема   Відповісти
Автор Повідомлення
ssTAss 
Модератор музики


З нами з: 05.07.08
Востаннє: 10.12.16
Повідомлень: 10950

2013-06-29 23:13  
Павло Табаков & Orchestra Vito - Кава-Blues (2011) [FLAC] | Blues

Павло Табаков & Orchestra Vito - Кава-Blues (2011) [FLAC] | Blues


Стиль: Jazz, Blues, Rock'n'Roll
Країна, місто: Україна, Львів
Сайти: Офіційний сайт Павла Табакова | Офіційний сайт Orchestra Vito
Видавець: Астра Рекордз
Виконавці:
Павло Табаков - вокал, бек-вокал, фортепіано, клавішні
А. Корнєєва, Л.Біць - бек-вокал
Гурт "Orchestra Vito" у складі

Віктор Янчак - баян, кнопковий акордеон
Сергій Гурін - електро-акустична гітара
Едвард Макось - барабани
Сергій Бридун - бас-гітара
Григорій Чепелюк = кларнет, сопрано-саксофон
Володимир Урбан - альт-саксофон
Мар'ян Ломага - скрипка
а також:
Юрій Мельник - клавішні
Володимир Возняк - гітара
Роман Вернадський - ударні
Пісні:
    1. Блюз на дні
    2. Леді-таємниця
    3. Сніг без пауз
    4. Я розпалю вогонь
    5. Вечірнє місто
    6. Жінка без парасолі
    7. Raggae-Marino
    8. Небо очей
    9. Бейбі
    10. Тільки погляд
    бонус:
    11. Шоколадний шок
log
Exact Audio Copy V0.99 prebeta 5 from 4. May 2009

Отчёт EAC об извлечении, выполненном 23. августа 2011, 11:27

Павло Табаков & Orchestra Vito / Кава-Blues

Дисковод: Optiarc DVD RW AD-7240S Adapter: 5 ID: 0

Режим чтения : Достоверность
Использование точного потока : Да
Отключение кэша аудио : Да
Использование указателей C2 : Нет

Коррекция смещения при чтении : 48
Способность читать области Lead-in и Lead-out : Нет
Заполнение пропущенных сэмплов тишиной : Да
Удаление блоков с тишиной в начале и конце : Нет
При вычислениях CRC использовались нулевые сэмплы : Да
Интерфейс : Встроенный Win32-интерфейс для Win NT/2000

Выходной формат : Внутренние WAV-операции
Формат сэмплов : 44.100 Гц; 16 бит; стерео

TOC извлечённого CD

Трек | Старт | Длительность | Начальный сектор | Конечный сектор
---------------------------------------------------------------------
1 | 0:00.00 | 3:50.61 | 0 | 17310
2 | 3:50.61 | 3:02.18 | 17311 | 30978
3 | 6:53.04 | 4:16.22 | 30979 | 50200
4 | 11:09.26 | 3:32.39 | 50201 | 66139
5 | 14:41.65 | 5:26.32 | 66140 | 90621
6 | 20:08.22 | 4:19.07 | 90622 | 110053
7 | 24:27.29 | 3:33.42 | 110054 | 126070
8 | 28:00.71 | 5:06.32 | 126071 | 149052
9 | 33:07.28 | 3:58.20 | 149053 | 166922
10 | 37:05.48 | 3:21.11 | 166923 | 182008
11 | 40:26.59 | 3:24.70 | 182009 | 197378

Характеристики диапазона извлечения и сообщения об ошибках

Выбранный диапазон

Имя файла D:\bqw\release\Павло Табаков & Orchestra Vito - Кава-Blues\Павло Табаков & Orchestra Vito - Кава-Blues.wav

Пиковый уровень 99.2 %
Качество диапазона 100.0 %
CRC теста 91597290
CRC копии 91597290
Копирование... OK

Ошибок не произошло

AccurateRip: сводка

Трек 1 нет в базе данных
Трек 2 нет в базе данных
Трек 3 нет в базе данных
Трек 4 нет в базе данных
Трек 5 нет в базе данных
Трек 6 нет в базе данных
Трек 7 нет в базе данных
Трек 8 нет в базе данных
Трек 9 нет в базе данных
Трек 10 нет в базе данных
Трек 11 нет в базе данных

Ни одного трека нет в базе AccurateRip

Конец отчёта
fooCDtect
fooCDtect - foobar2000 + auCDtect, baralgin.

auCDtect: CD records authenticity detector, version 0.8.2
Copyright (c) 2004 Oleg Berngardt. All rights reserved.
Copyright (c) 2004 Alexander Djourik. All rights reserved.

mode: 0

===========================================
Track: 01 - Блюз на дні
Quality: CDDA 100%
===========================================
Track: 02 - Леді-таємниця
Quality: CDDA 100%
===========================================
Track: 03 - Сніг без пауз
Quality: CDDA 100%
===========================================
Track: 04 - Я розпалю вогонь
Quality: CDDA 100%
===========================================
Track: 05 - Вечірнє місто
Quality: CDDA 85%
===========================================
Track: 06 - Жінка без парасолі
Quality: CDDA 100%
===========================================
Track: 07 - Reggae - Marino
Quality: CDDA 100%
===========================================
Track: 08 - Небо очей
Quality: CDDA 100%
===========================================
Track: 09 - Бейбі
Quality: CDDA 100%
===========================================
Track: 10 - Тільки погляд
Quality: CDDA 100%
===========================================
Track: 11 - Шоколадний шок
Quality: CDDA 100%
===========================================
Тривалість: 00:43:52
Мова: українська
Аудіо-кодек: FLAC
Бітрейт: 928 кб/с
Джерело: інший трекер
Додаткова інформація:
Павло Табаков постійно змінюється, практично у кожному новому альбомі він пропонує щось інше, по-справжньому відмінне від попереднього. Ось і цього разу: він пропонує українську естрадну музику європейського – хоча радше, мабуть, американського – зразку. Є одразу дві причини, щоб так сказати. Перша – це поп-музика з дуже яскравими домішками блюзу, джазу й фанку, з латиноамериканським присмаком. Друга – якість. З цим у альбомах Табакова теж все завжди було гаразд – але все ж хочеться окремо віддати належне і команді музикантів з Оркестру Vito. Професійність не сховаєш, вона відчувається – і в даному випадку вона відчувається добре. Лишається згадати два останні (але не за значенням) складники: прості й гарні українські тексти – і, ясна річ, вокал Павла Табакова. Його манера виконання теж міняється з кожною новою роботою – і, що приємно, міняється органічно, нічого неприродного чи зайвого тут не з’являється. В результаті – ось можливість почути альбом свіжої української поп-музики такої якості, яка, мабуть, і мала би стати, нарешті, нормою...


Якщо Ви справді бажаєте підтримати українське - після прослуховування, якщо музика вам сподобалась,
придбайте ліцензійний диск.
Підтримаймо вітчизняних виконавців!


Срібний реліз (на рейтинг впливає 50% завантаженого)
 Трекер:    Зареєстрований   

Завантажити / скачати українську музику



відео для новачків



 Зареєстрований:   2013-06-29 23:13
 Розмір:   318 MB 
 Оцінка музики:   7.2/10 (Голосів: 10)
   
ssTAss 
Модератор музики


З нами з: 05.07.08
Востаннє: 10.12.16
Повідомлень: 10950

2013-06-29 23:14  
гульчатай 
Новенький


З нами з: 30.04.13
Востаннє: 26.11.16
Повідомлень: 1

2016-11-26 00:31  
Дякую Вам..
Ваш часовий пояс: GMT + 2 Години

Нова тема   Відповісти