Завантажити та скачати торренти українською


Операція «Контракт» (1996)

Нові коментарі

Нова тема   Відповісти
Автор Повідомлення
Віктор 
Відео Гуртом - субтитрування
Відео Гуртом - субтитрування


З нами з: 09.01.10
Востаннє: 03.12.16
Повідомлень: 8663

2013-06-28 07:30  
Операція «Контракт» (1996)



Жанр: пригодницький, детектив
Країна: Україна

Кіностудія / кінокомпанія: Укртелефільм, та СП «Червона рута»
Режисер і сценарист: Тамара Бойко
Оператор: Лесь Зоценко
Художник: Едуард Колесов
Звукорежисер: Олександр Ренков
Актори/ролі дублювали: Лесь Сердюк — Полковник Герасименко, Олександр Биструшкін — Вадим Львович, Віталій Борисюк — Валерій (він же Артур), Володимир Мазур — Боцман Чабанюк, Віктор Сарайкін — Капітан т/х «Тамань», Юрій Гребельник/Шапурко — Олексій Богданович, Володимир Терещук/Сергій — Дублює себе, Сергій Кучеренко — Михайлюта, Ярослав Бойко — Женя, Станіслав Харламов — Помічник капітана, Олег Примагенов — Сєва, Володимир Горянський — Катерновський, Олександр Пархоменко — Фотограф, Ірина Дорошенко — Дублює себе та інші. Ролі дублювали: Дружина пана Цендровського — Тетяна Антонова? та інші.

Сюжет:
Про детективні події, що сталися на пароплаві у міжнародному рейсі під час ''розборок'' мафіозних структур.
Звіт MediaInfo
Код:
General
Complete name                    : D:\HURTOM\Operatsiya Kontrakt (1996) .avi
Format                           : AVI
Format/Info                      : Audio Video Interleave
File size                        : 1.31 GiB
Duration                         : 1h 23mn
Overall bit rate                 : 2 242 Kbps
Writing application              : FairUse Wizard - http://fairusewizard.com
Writing library                  : The best and REALLY easy backup tool

Video
ID                               : 0
Format                           : MPEG-4 Visual
Format settings, BVOP            : 1
Format settings, QPel            : No
Format settings, GMC             : No warppoints
Format settings, Matrix          : Default (H.263)
Muxing mode                      : Packed bitstream
Codec ID                         : DX50
Codec ID/Hint                    : DivX 5
Duration                         : 1h 23mn
Bit rate                         : 2 040 Kbps
Width                            : 704 pixels
Height                           : 528 pixels
Display aspect ratio             : 4:3
Frame rate                       : 25.000 fps
Color space                      : YUV
Chroma subsampling               : 4:2:0
Bit depth                        : 8 bits
Scan type                        : Progressive
Compression mode                 : Lossy
Bits/(Pixel*Frame)               : 0.220
Stream size                      : 1.19 GiB (91%)
Writing library                  : DivX 6.8.5 (UTC 2009-08-20)

Audio
ID                               : 1
Format                           : MPEG Audio
Format version                   : Version 1
Format profile                   : Layer 3
Mode                             : Joint stereo
Codec ID                         : 55
Codec ID/Hint                    : MP3
Duration                         : 1h 23mn
Bit rate mode                    : Constant
Bit rate                         : 192 Kbps
Channel(s)                       : 2 channels
Sampling rate                    : 48.0 KHz
Compression mode                 : Lossy
Delay relative to video          : 24ms
Stream size                      : 115 MiB (9%)
Alignment                        : Aligned on interleaves
Interleave, duration             : 40 ms (1.00 video frame)
Interleave, preload duration     : 504 ms
Тривалість: 01:23:30
Якість: (на DVD не виходив)
Відео:
кодек: DivX 5
розмір кадру: 704x528
бітрейт: 2040 кб/с

Аудіо:
мова: українська
переклад: професійний дубльований
кодек: mp3 2.0
бітрейт: 192 кб/с

скріншоти










Джерело: ex.ua, pashko
Особиста оцінка: не дивився


Золотий реліз (завантажене не впливає на рейтинг)
 Трекер:    Зареєстрований   

Завантажити / скачати український фільм



відео для новачків



 Зареєстрований:   2013-06-28 07:30
 Розмір:   1.31 GB 
 Оцінка фільму:   8.9/10 (Голосів: 8)
   
Віктор 
Відео Гуртом - субтитрування
Відео Гуртом - субтитрування


З нами з: 09.01.10
Востаннє: 03.12.16
Повідомлень: 8663

2013-06-28 14:24  
А де залізо? Йо.)
lpershyi 
Попереджень: 2
Попереджень: 2 


З нами з: 04.01.11
Востаннє: 30.11.16
Повідомлень: 2622

2013-06-28 23:59  
Віктор написано:
професійний дубльований
так!
Ваш часовий пояс: GMT + 2 Години

Нова тема   Відповісти