Завантажити та скачати торренти українською


Банди Нью-Йорка / Gangs of New York (2002) [Remastered] 1080p 2xUkr/Eng | Sub Eng

Нові коментарі

Нова тема   Відповісти
Автор Повідомлення
Anonymous 







2013-06-27 16:27  
Банди Нью-Йорка / Gangs of New York (2002) [Remastered] 1080p 2xUkr/Eng | Sub Eng

Банди Нью-Йорка / Gangs of New York (2002) [Remastered] 1080p 2xUkr/Eng | Sub Eng

Альтернативні постери




повнорозмірні зображення відкриються по кліку (з натиснутим CTRL чи кліком середньою кнопкою мишки - у новій вкладці)


Жанр: драма, кримінальний, історичний
Країна: США, Німеччина, Велика Британія, Нідерланди, Італія

10 номінацій на Оскар, 2 "Золотих глобуси", премії Британської кіноакадемії та Гільдії акторів
Усі нагороди та номінації


Оскар, 2003 рік
Номінації (10):
Кращий фільм,
Краща чоловіча роль (Деніел Дей-Льюїс),
Кращий режисер (Мартін Скорсезе),
Кращий оригінальний сценарій,
Краща робота оператора,
Кращі декорації,
Кращі костюми,
Кращий звук,
Кращий монтаж,
Краща пісня — «The Hands That Built America»



Золотий глобус, 2003 рік
Переможець (2):
Кращий режисер (Мартін Скорсезе),
Краща пісня — «The Hands That Built America»


Номінації (3):
Кращий фільм (драма),
Краща чоловіча роль (Деніел Дей-Льюїс),
Краща жіноча роль другого плану (Камерон Діаз)


Банди Нью-Йорка / Gangs of New York (2002) [Remastered] 1080p 2xUkr/Eng | Sub Eng
Британська академія кіно та телевізійного мистецтва, 2003 рік
Переможець (1):
Краща чоловіча роль (Деніел Дей-Льюїс)


Номінації (11):
Кращий фільм,
Кращий оригінальний сценарій,
Краща робота оператора,
Кращі костюми,
Кращий звук,
Кращий монтаж,
Кращі візуальні ефекти,
Кращий грим/зачіски,
Краща робота художника-постановника,
Премія імені Девида Ліна за досягнення в режисурі (Мартін Скорсезе)
Премія імені Ентоні Ескуіта за досягнення у створенні музики до фільму


Банди Нью-Йорка / Gangs of New York (2002) [Remastered] 1080p 2xUkr/Eng | Sub Eng
Премія Гільдії акторів, 2003 рік
Переможець (1):
Краща чоловіча роль (Деніел Дей-Льюїс)



Премія каналу MTV, 2000 рік
Номінації (2):
Кращий лиходій (Деніел Дей-Льюїс)
Кращий поцілунок (Леонардо ДіКапріо, Камерон Діаз)



Сезар, 2004 рік
Номінації (1):
Кращий фільм на іноземній мові

а також:
3 «Золотих сателіта» - за чоловічу роль (Деніел Дей-Льюїс - порівну з Майклом Кейном / Michael Caine, що зіграв у фільмі «Тихий американець» / The Quiet American), за роботу художника і монтаж (Тельма Скунмейкер - Thelma Schoonmaker), «Срібна стрічка »в Італії за роботу художника, Національна премія кінокритики та кінопреси Росії за чоловічу роль (Деніел Дей-Льюїс)


Кінокомпанія: Miramax Films, Initial Entertainment Group (IEG), Alberto Grimaldi Productions
Режисер: Мартін Скорсезе / Martin Scorsese
Актори: Леонардо ДіКапріо / Leonardo DiCaprio, Деніел Дей-Льюїс / Daniel Day-Lewis, Камерон Діаз / Cameron Diaz, Лайам Нісон / Liam Neeson, Генрі Томас / Henry Thomas, Джим Броадбент / Jim Broadbent, Джон С. Райллі / John C. Reilly, Брендан Глісон / Brendan Gleeson, Гарі Льюїс / Gary Lewis, Стівен Грехем / Stephen Graham та інші

Сюжет:
Дія фільму відбувається в Нью-Йорку, протягом 1846-1863 років. Парубок на ім'я Амстердам (Леонардо Дікапріо), бажає помститися Біллу "М'ясникові" (Деніел Дей-Льюіс), людині, що вбила його батька. Він гарантує свою допомогу кишеньковому злодієві Джені Евердан, але завдання виявляється набагато більше небезпечним, ніж Амстердам міг коли-небудь, собі уявити, коли він розуміє, що його тато був убитий у результаті війни між кримінальними угрупованнями. Серед куплених поліцейських і корумпованих політичних діячів об'єкт його помсти Білл є всього лише ще однією фігурою в цій кривавій гангстерській війні.

Нью-Йорк, 1863. В диких трущобах міста «американської мрії» діє тільки один закон - закон сили. Тут йде у хід будь-яка зброя, ніхто не рахує втрат і не оплакує загиблих. В одній з жорстоких сутичок від рук ватажка «корінних американців» - М'ясника Білла (Деніел Дей-Льюіс) гине ватажок банди «ірландців» Веллон.
Його син Амстердам (Леонардо Дікапріо) надовго потрапляє у виправну школу, затамувавши ненависть на М'ясника, що став господарем навколишніх кварталів. Через роки не впізнаний ніким Амстердам повернеться на рідні вулиці з єдиною метою - помститися вбивці батька ...


рейтинг MPAA: R - особам до 17 років обов'язкова присутність батьків або дорослого опікуна
Вікова категорія: 18+

Тривалість: 02:46:34
Якість: 1080p
Відео:
кодек:
розмір кадру: 1920x816
бітрейт: 8644 кб/с

Аудіо # 1: &
мова: українська
переклад: двоголосий закадровий
Ролі озвучили: Андрій Твердак, Тетяна Антонова або Ірина Стасів
кодек: 2.0
бітрейт: 192 Кбіт/с

Аудіо # 2:
мова: українська
переклад: багатоголосий закадровий
кодек: 2.0
бітрейт: 192 Кбіт/с

Аудіо # 3:
мова: англійська
переклад: оригінал
кодек: 5.1
бітрейт: 640 кб/с

Субтитри:
мова: англійська
тип: програмні (м'які)
формат: *.srt

Збережено оригінальні розділи, як на Blu-ray.
MediaInfo
Код:
Complete name               : Gangs of New York [Remastered] (2002) [2xUkr,Eng sub.Eng] 1080p [Hurtom].mkv
Format                      : Matroska
Format version              : Version 4 / Version 2
File size                   : 11.2 GiB
Duration                    : 2 h 46 min
Overall bit rate            : 9 667 kb/s
Movie name                  : Банди Нью-Йорка / Gangs of New York [Remastered] (2002) [2xUkr,Eng sub.Eng] 1080p [Hurtom] by igor911
Released date               : 2002
Cover                       : Yes
Comment                     : http://www.imdb.com/title/tt0217505/
Attachments                 : cover.jpg
ARTIST                      : Леонардо ДіКапріо / Leonardo DiCaprio, Деніел Дей-Льюїс / Daniel Day-Lewis, Камерон Діаз / Cameron Diaz, Лайам Нісон / Liam Neeson, Генрі Томас / Henry Thomas, Джим Броадбент / Jim Broadbent, Джон С. Райллі / John C. Reilly, Брендан Глісон / Brendan Gleeson, Гарі Льюїс / Gary Lewis, Стівен Грехем / Stephen Graham та інші
DIRECTOR                    : Мартін Скорсезе / Martin Scorsese
GENRE                       : драма, кримінальний, історичний
SYNOPSIS                    : Дія фільму відбувається в Нью-Йорку, протягом 1846-1863 років. Парубок на ім'я Амстердам (Леонардо Дікапріо), бажає помститися Біллу "М'ясникові" (Деніел Дей-Льюіс), людині, що вбила його батька. Він гарантує свою допомогу кишеньковому злодієві Джені Евердан, але завдання виявляється набагато більше небезпечним, ніж Амстердам міг коли-небудь, собі уявити, коли він розуміє, що його тато був убитий у результаті війни між кримінальними угрупованнями. Серед куплених поліцейських і корумпованих політичних діячів об'єкт його помсти Білл є всього лише ще однією фігурою в цій кривавій гангстерській війні. /  / Нью-Йорк, 1863. В диких трущобах міста «американської мрії» діє тільки один закон - закон сили. Тут йде у хід будь-яка зброя, ніхто не рахує втрат і не оплакує загиблих. В одній з жорстоких сутичок від рук ватажка «корінних американців» - М'ясника Білла (Деніел Дей-Льюіс) гине ватажок банди «ірландців» Веллон. / Його син Амстердам (Леонардо Дікапріо) надовго потрапляє у виправну школу, затамувавши ненависть на М'ясника, що став господарем навколишніх кварталів. Через роки не впізнаний ніким Амстердам повернеться на рідні вулиці з єдиною метою - помститися вбивці батька ...
Url                         : https://toloka.to/t47891

Video
ID                          : 1
Format                      : AVC
Format/Info                 : Advanced Video Codec
Format profile              : [email protected]
Format settings, CABAC      : Yes
Format settings, ReFrames   : 5 frames
Codec ID                    : V_MPEG4/ISO/AVC
Duration                    : 2 h 46 min
Bit rate                    : 8 644 kb/s
Width                       : 1 920 pixels
Height                      : 816 pixels
Display aspect ratio        : 2.35:1
Frame rate mode             : Constant
Frame rate                  : 23.976 (24000/1001) FPS
Color space                 : YUV
Chroma subsampling          : 4:2:0
Bit depth                   : 8 bits
Scan type                   : Progressive
Bits/(Pixel*Frame)          : 0.230
Stream size                 : 10.1 GiB (89%)
Title                       : Банди Нью-Йорка / Gangs of New York [Remastered] (2002) 1080p [Boriy]
Writing library             : core 133 r2334 a3ac64b
Encoding settings           : cabac=1 / ref=5 / deblock=1:-3:-3 / analyse=0x3:0x113 / me=umh / subme=10 / psy=1 / psy_rd=1.00:0.10 / mixed_ref=1 / me_range=32 / chroma_me=1 / trellis=2 / 8x8dct=1 / cqm=0 / deadzone=21,11 / fast_pskip=0 / chroma_qp_offset=-2 / threads=12 / lookahead_threads=1 / sliced_threads=0 / nr=0 / decimate=0 / interlaced=0 / bluray_compat=0 / constrained_intra=0 / bframes=5 / b_pyramid=2 / b_adapt=2 / b_bias=0 / direct=3 / weightb=1 / open_gop=0 / weightp=2 / keyint=240 / keyint_min=23 / scenecut=40 / intra_refresh=0 / rc=2pass / mbtree=0 / bitrate=8644 / ratetol=1.0 / qcomp=0.60 / qpmin=0 / qpmax=69 / qpstep=4 / cplxblur=20.0 / qblur=0.5 / ip_ratio=1.40 / pb_ratio=1.30 / aq=1:0.80
Language                    : English
Default                     : Yes
Forced                      : No

Audio #1
ID                          : 2
Format                      : AC-3
Format/Info                 : Audio Coding 3
Mode extension              : CM (complete main)
Format settings, Endianness : Big
Codec ID                    : A_AC3
Duration                    : 2 h 46 min
Bit rate mode               : Constant
Bit rate                    : 192 kb/s
Channel(s)                  : 2 channels
Channel positions           : Front: L R
Sampling rate               : 48.0 kHz
Frame rate                  : 31.250 FPS (1536 spf)
Compression mode            : Lossy
Stream size                 : 229 MiB (2%)
Title                       : DVO [1+1,ICTV] 2.0 192 Kbps [Hurtom-karvai0,ratbol,xslim]
Language                    : Ukrainian
Default                     : Yes
Forced                      : No

Audio #2
ID                          : 3
Format                      : AC-3
Format/Info                 : Audio Coding 3
Mode extension              : CM (complete main)
Format settings, Endianness : Big
Codec ID                    : A_AC3
Duration                    : 2 h 46 min
Bit rate mode               : Constant
Bit rate                    : 192 kb/s
Channel(s)                  : 2 channels
Channel positions           : Front: L R
Sampling rate               : 48.0 kHz
Frame rate                  : 31.250 FPS (1536 spf)
Compression mode            : Lossy
Stream size                 : 229 MiB (2%)
Title                       : MVO [Inter] 2.0 192 Kbps [Hurtom-Arsenfpu,krigg070]
Language                    : Ukrainian
Default                     : No
Forced                      : No

Audio #3
ID                          : 4
Format                      : AC-3
Format/Info                 : Audio Coding 3
Mode extension              : CM (complete main)
Format settings, Endianness : Big
Codec ID                    : A_AC3
Duration                    : 2 h 46 min
Bit rate mode               : Constant
Bit rate                    : 640 kb/s
Channel(s)                  : 6 channels
Channel positions           : Front: L C R, Side: L R, LFE
Sampling rate               : 48.0 kHz
Frame rate                  : 31.250 FPS (1536 spf)
Compression mode            : Lossy
Stream size                 : 763 MiB (7%)
Title                       : Original, 5.1 640 Kbps
Language                    : English
Default                     : No
Forced                      : No

Text
ID                          : 5
Format                      : UTF-8
Codec ID                    : S_TEXT/UTF8
Codec ID/Info               : UTF-8 Plain Text
Duration                    : 2 h 36 min
Bit rate                    : 46 b/s
Count of elements           : 1743
Stream size                 : 53.2 KiB (0%)
Title                       : Eng full
Language                    : English
Default                     : No
Forced                      : No

Menu
00:00:00.000                : :Battle of the Five Points
00:15:05.321                : :A City in Turmoil
00:23:36.457                : :The Gangs
00:27:42.160                : :Fighting Over Fires
00:33:19.164                : :Bill's Tribute
00:38:42.195                : :"A Couple of Fidlam Bens"
00:45:58.422                : :My Medal
00:52:46.830                : :The Butcher's Lesson
01:01:38.862                : :The Queen of the Dance
01:10:29.809                : :Under the Dragon's Wing
01:20:44.631                : :"I'll Bite You"
01:25:13.150                : :"Civilization Is Crumbling"
01:33:23.097                : :Betrayal
01:36:43.423                : :"This Is a Night for Americans!"
01:43:20.611                : :Spared by the Butcher
01:47:37.493                : :Regaining a Full Heart
01:54:25.525                : :"Old Uncle Jack"
02:00:58.543                : :"Just Kill Me"
02:07:00.947                : :Sheriff Monk
02:12:27.439                : :Notch 45
02:18:03.609                : :Setting Terms
02:22:59.738                : :Mob Rule
02:29:22.245                : :A True American
02:37:53.381                : :End Credits


Джерело: &
Подяки за український звук: karvai0, ratbol, xslim (1+1), Arsenfpu, krigg070 (Інтер), за український постер - mrdavis

ЗАЛИШАЙТЕСЬ ЯКОМОГА ДОВШЕ НА РОЗДАЧІ!
СКАЧАВ САМ - ДАЙ СКАЧАТИ ІНШИМ


Срібний реліз (на рейтинг впливає 50% завантаженого)
 Трекер:    Зареєстрований   

Завантажити / скачати фільм українською



відео для новачків



 Зареєстрований:   2016-10-12 00:21
 Розмір:   11.25 GB 
 Оцінка фільму:   7.1/10 (Голосів: 33)
   
Anonymous 







2016-10-12 00:24  
Реліз оновлено!
Додано доріжку з Інтера

золото на тиждень

ВАВУНЯ 
Частий відвідувач


З нами з: 30.06.15
Востаннє: 07.12.16
Повідомлень: 41

2016-10-12 11:23  
накласти б українські доріжки на Remux 1080p REMASTERED.
на ворожому треккері є відео: 1920x1080, 22096 kbps, 23.976 fps. про звук я вже мочу. Sad (1)

RockandRolla 
Свій


З нами з: 11.02.10
Востаннє: 08.12.16
Повідомлень: 50

2016-12-02 16:06  
Станьте будь ласка на роздачу
Ваш часовий пояс: GMT + 2 Години

Нова тема   Відповісти