Завантажити та скачати торренти українською


Монте-Карло / Monte Carlo (2011) 1080p Ukr/Eng | Sub Eng

Нові коментарі

Нова тема   Відповісти
Автор Повідомлення
Anonymous 







2013-06-26 17:43  
Монте-Карло / Monte Carlo (2011) 1080p Ukr/Eng | Sub Eng



Жанр: мелодрама, комедія, пригодницький
Країна: США, Угорщина



Кінокомпанія: Fox 2000 Pictures, Regency Enterprises, DiNovi Pictures
Режисер: Томас Безуча / Thomas Bezucha
Актори: Селена Ґомес / Selena Gomez, Кеті Кессіді / Katie Cassidy, Лейтон Містер / Leighton Meester, Корі Монтейт / Cory Monteith, Енді МакДауелл / Andie MacDowell, Бретт Каллен / Brett Cullen, Аманда Фейрбенк-Хайнс / Amanda Fairbank-Hynes, Джо Кемп III / Joe Camp III, Люк Брейсі / Luke Bracey, Валері Лемерсьє / Valérie Lemercier та інші.

Сюжет:
Під завісу своєї довгоочікуваної, але невдалої подорожі в Париж три дівчини від нудьги заходять в п'ятизірковий готель, і їхнє життя робить запаморочливий поворот: одну з них приймають за розпещену англійку, спадкоємицю величезного спадку. І ось гарбуз перетворюється на карету, скромне платтячко - в шикарний наряд, Попелюшка - в принцесу, а Париж - в Монте-Карло з папараці, приватними літаками, і незабутньою романтикою.


рейтинг MPAA: PG - рекомендується присутність батьків
Вікова категорія: 6+

Тривалість: 01:48:46
Якість: 1080p
Відео:
кодек:
розмір кадру: 1920х1040
бітрейт: 15.3 Mbps

Аудіо # 1:
мова: українська
переклад: багатоголосий закадровий
Ролі озвучили: Юлія Перенчук, Людмила Ардельян та Андрій Твердак.
кодек: 2.0
бітрейт: 192 кб/с

Аудіо # 2:
мова: англійська
переклад: оригінал
кодек: 5.1
бітрейт: 1510 кб/с

Субтитри:
мова: англійська
тип: програмні (м'які)
формат: *.srt

Збережено оригінальні розділи, як на Blu-ray.
MediaInfo
General
Unique ID : 197269933491915567610737175074365674210 (0x9468CEA4EAC9BFB88AEFC3DCA87E92E2)
Complete name : Monte.Carlo.2011..1080p.Ukr.Eng.mkv
Format : Matroska
Format version : Version 4 / Version 2
File size : 12.9 GiB
Duration : 1h 48mn
Overall bit rate : 16.9 Mbps
Movie name : Монте Карло / Monte Carlo / Монте-Карло (2011)
Encoded date : UTC 2013-06-26 12:12:12
Writing application : mkvmerge v6.2.0 ('Promised Land') built on Apr 28 2013 12:22:01
Writing library : libebml v1.3.0 + libmatroska v1.4.0

Video
ID : 1
Format : AVC
Format/Info : Advanced Video Codec
Format profile : [email protected]
Format settings, CABAC : Yes
Format settings, ReFrames : 4 frames
Codec ID : V_MPEG4/ISO/AVC
Duration : 1h 48mn
Bit rate : 15.3 Mbps
Width : 1 920 pixels
Height : 1 040 pixels
Display aspect ratio : 1.85:1
Frame rate mode : Constant
Frame rate : 23.976 fps
Color space : YUV
Chroma subsampling : 4:2:0
Bit depth : 8 bits
Scan type : Progressive
Bits/(Pixel*Frame) : 0.319
Stream size : 11.3 GiB (88%)
Title : Монте Карло / Monte Carlo / Монте-Карло (2011) [CHD]
Writing library : core 116 r2074 2641b9e
Encoding settings : cabac=1 / ref=4 / deblock=1:-3:-3 / analyse=0x3:0x113 / me=umh / subme=11 / psy=1 / psy_rd=1.05:0.10 / mixed_ref=1 / me_range=32 / chroma_me=1 / trellis=2 / 8x8dct=1 / cqm=0 / deadzone=21,11 / fast_pskip=0 / chroma_qp_offset=-2 / threads=8 / sliced_threads=0 / nr=0 / decimate=1 / interlaced=0 / bluray_compat=0 / constrained_intra=0 / bframes=6 / b_pyramid=2 / b_adapt=2 / b_bias=0 / direct=3 / weightb=1 / open_gop=0 / weightp=2 / keyint=250 / keyint_min=23 / scenecut=40 / intra_refresh=0 / rc_lookahead=50 / rc=2pass / mbtree=1 / bitrate=15250 / ratetol=1.0 / qcomp=0.70 / qpmin=0 / qpmax=69 / qpstep=4 / cplxblur=20.0 / qblur=0.5 / vbv_maxrate=45000 / vbv_bufsize=40000 / nal_hrd=none / ip_ratio=1.40 / aq=2:0.80
Language : English
Default : Yes
Forced : No

Audio #1
ID : 2
Format : AC-3
Format/Info : Audio Coding 3
Mode extension : CM (complete main)
Format settings, Endianness : Big
Codec ID : A_AC3
Duration : 1h 48mn
Bit rate mode : Constant
Bit rate : 192 Kbps
Channel(s) : 2 channels
Channel positions : Front: L R
Sampling rate : 48.0 KHz
Bit depth : 16 bits
Compression mode : Lossy
Stream size : 149 MiB (1%)
Title : MVO [TET] 2.0 192 Kbps [Hurtom-xSlim, Vasua95]
Language : Ukrainian
Default : Yes
Forced : No

Audio #2
ID : 3
Format :
Format/Info : Digital Theater Systems
Mode : 16
Format settings, Endianness : Big
Codec ID : A_DTS
Duration : 1h 48mn
Bit rate mode : Constant
Bit rate : 1 509 Kbps
Channel(s) : 6 channels
Channel positions : Front: L C R, Side: L R, LFE
Sampling rate : 48.0 KHz
Bit depth : 24 bits
Compression mode : Lossy
Stream size : 1.15 GiB (9%)
Title : Original
Language : English
Default : No
Forced : No

Text
ID : 4
Format : UTF-8
Codec ID : S_TEXT/UTF8
Codec ID/Info : UTF-8 Plain Text
Title : Eng full
Language : English
Default : No
Forced : No

Menu
00:00:00.000 : en:00:00:00.000
00:10:38.137 : en:00:10:38.137
00:17:33.135 : en:00:17:33.135
00:26:02.603 : en:00:26:02.603
00:32:28.196 : en:00:32:28.196
00:37:28.413 : en:00:37:28.413
00:42:14.198 : en:00:42:14.198
00:52:10.377 : en:00:52:10.377
01:01:24.973 : en:01:01:24.973
01:08:45.538 : en:01:08:45.538
01:15:39.160 : en:01:15:39.160
01:21:19.249 : en:01:21:19.249
01:30:35.347 : en:01:30:35.347
01:40:58.177 : en:01:40:58.177
01:45:13.724 : en:01:45:13.724


Джерела та подяки: ріп відео, оригінальні звук та субтитри - CHD (з релізу Talian70 ); українська доріжка - xSlimрелізу Vasua95 ; український постер - iTunes Russia

ЗАЛИШАЙТЕСЬ ЯКОМОГА ДОВШЕ НА РОЗДАЧІ!

СКАЧАВ САМ - ДАЙ СКАЧАТИ ІНШИМ


 Трекер:    Зареєстрований   

Завантажити / скачати фільм українською



відео для новачків



 Зареєстрований:   2013-06-26 17:43
 Розмір:   12.87 GB 
 Оцінка фільму:   5.1/10 (Голосів: 21)
   
Інші релізи
   Монте Карло / Monte Carlo (2011) Ukr/Eng AngryBirdsUA  3 / 0   1.99 GB   2013-02-05 19:48 
Ваш часовий пояс: GMT + 2 Години

Нова тема   Відповісти