Завантажити та скачати торренти українською


Мар'ян Гаденко - З отчої криниці (2010) [FLAC] | Pop

Нові коментарі

Нова тема   Відповісти
Останній раз роздавалося ssTAss (2016-12-11)
Автор Повідомлення
ssTAss 
Модератор музики


З нами з: 05.07.08
Востаннє: 11.12.16
Повідомлень: 10958

2013-06-25 22:01  
Мар'ян Гаденко - З отчої криниці (2010) [FLAC] | Pop

Мар'ян Гаденко - З отчої криниці (2010) [FLAC] | Pop


Стиль: Pop
Країна, місто: Україна, Сторожинець / Чернівці
Сайти: Офіційний сайт
Видавець: Студія "6 Секунд"
Виконавці:
Гаденко Мар'ян Ілліч
Пісні:
    1 Емігрантка
    2 Загадав собі долю
    3 Мамине причастя
    4 Сиві тумани
    5 Ностальгія
    6 Усміхнися
    7 Пані осінь
    8 Почекай
    9 З отчої криниці
    10 Країна кохання
    11 Батькова пісня
    12 Пізня зустріч
    13 Ти моя мила
    14 Гомоніла весна
    15 Ти мій неспокій
    16 Ми тепер не чужі
    17 Все минуло
    18 Горобина терпка
    19 Пролітають літа
log
Exact Audio Copy V0.99 prebeta 5 from 4. May 2009

Отчёт EAC об извлечении, выполненном 19. ноября 2011, 10:40

Мар'ян Гаденко / З отчої криниці

Дисковод: HL-DT-STCD-RW GCE-8525B Adapter: 0 ID: 2

Режим чтения : Достоверность
Использование точного потока : Да
Отключение кэша аудио : Да
Использование указателей C2 : Нет

Коррекция смещения при чтении : 6
Способность читать области Lead-in и Lead-out : Нет
Заполнение пропущенных сэмплов тишиной : Да
Удаление блоков с тишиной в начале и конце : Нет
При вычислениях CRC использовались нулевые сэмплы : Да
Интерфейс : Установленный внешний ASPI-интерфейс

Выходной формат : Внутренние WAV-операции
Формат сэмплов : 44.100 Гц; 16 бит; стерео

TOC извлечённого CD

Трек | Старт | Длительность | Начальный сектор | Конечный сектор
---------------------------------------------------------------------
1 | 0:00.00 | 4:31.18 | 0 | 20342
2 | 4:31.18 | 3:41.18 | 20343 | 36935
3 | 8:12.36 | 4:02.17 | 36936 | 55102
4 | 12:14.53 | 4:03.44 | 55103 | 73371
5 | 16:18.22 | 4:14.28 | 73372 | 92449
6 | 20:32.50 | 4:28.11 | 92450 | 112560
7 | 25:00.61 | 3:36.39 | 112561 | 128799
8 | 28:37.25 | 3:35.18 | 128800 | 144942
9 | 32:12.43 | 3:41.16 | 144943 | 161533
10 | 35:53.59 | 3:59.33 | 161534 | 179491
11 | 39:53.17 | 4:15.47 | 179492 | 198663
12 | 44:08.64 | 4:22.68 | 198664 | 218381
13 | 48:31.57 | 4:17.66 | 218382 | 237722
14 | 52:49.48 | 4:42.66 | 237723 | 258938
15 | 57:32.39 | 4:05.07 | 258939 | 277320
16 | 61:37.46 | 4:37.10 | 277321 | 298105
17 | 66:14.56 | 4:39.00 | 298106 | 319030
18 | 70:53.56 | 4:20.56 | 319031 | 338586
19 | 75:14.37 | 4:31.61 | 338587 | 358972

Характеристики диапазона извлечения и сообщения об ошибках

Выбранный диапазон

Имя файла G:\Закачки торент\Роздачі\Мар'ян Гаденко - З отчої криниці (2010)\Мар'ян Гаденко - З отчої криниці.wav

Пиковый уровень 100.0 %
Качество диапазона 99.9 %
CRC копии 78EAF645
Копирование... OK

Ошибок не произошло

Конец отчёта
fooCDtect
fooCDtect - foobar2000 + auCDtect, baralgin.

auCDtect: CD records authenticity detector, version 0.8.2
Copyright (c) 2004 Oleg Berngardt. All rights reserved.
Copyright (c) 2004 Alexander Djourik. All rights reserved.

mode: 0

===========================================
Track: 01 - Емігрантка
Quality: CDDA 99%
===========================================
Track: 02 - Згадав собі долю
Quality: CDDA 99%
===========================================
Track: 03 - Мамине причастя
Quality: CDDA 100%
===========================================
Track: 04 - Сиві тумани
Quality: CDDA 100%
===========================================
Track: 05 - Ностальгія
Quality: CDDA 100%
===========================================
Track: 06 - Усміхнися
Quality: CDDA 100%
===========================================
Track: 07 - Пані осінь
Quality: CDDA 99%
===========================================
Track: 08 - Почекай
Quality: CDDA 100%
===========================================
Track: 09 - З отчої криниці
Quality: CDDA 100%
===========================================
Track: 10 - Країна кохання
Quality: CDDA 100%
===========================================
Track: 11 - Батькова пісня
Quality: MPEG 95%
===========================================
Track: 12 - Пізня зустріч
Quality: CDDA 100%
===========================================
Track: 13 - Ти моя мила
Quality: CDDA 99%
===========================================
Track: 14 - Гомоніла весна
Quality: CDDA 100%
===========================================
Track: 15 - Ти мій неспокій
Quality: CDDA 99%
===========================================
Track: 16 - Ми тепер не чужі
Quality: CDDA 100%
===========================================
Track: 17 - Все минуло
Quality: CDDA 100%
===========================================
Track: 18 - Горобина терпка
Quality: CDDA 100%
===========================================
Track: 19 - Пролітають літа
Quality: CDDA 99%
===========================================
Тривалість: 01:19:46
Мова: українська
Аудіо-кодек: FLAC
Бітрейт: 974 кб/с
Джерело: ріп Mozart_w_a
Додаткова інформація:
Мар’ян Гаденко є частим і жаданим гостем не тільки в різних регіонах нашої країни, а й у далеких світах, де живуть українці і плекають, як і він, рідну мову та культуру. Сьогодні в Україні немає жодної людини, яка б не милувалася його зворушливими, глибокозмістовними піснями «Зорепад», «Пізня зустріч», «Емігрантка», «П’ю до дна», «А де моя весна», «Ностальгія»…

У творчому доробку композитора понад 800 пісень. Більшість з них Мар’ян Гаденко написав на власні тексти, хоч на музику лягають і натхненні поезії улюблених авторів, таких як Микола Сингаївський, Степан Галябарда, Зоя Кучерява, Марія Матіос, Гана Чубач, Олександр Мороз, Вадим Крищенко.


Якщо Ви справді бажаєте підтримати українське - після прослуховування, якщо музика вам сподобалась,
придбайте ліцензійний диск.
Підтримаймо вітчизняних виконавців!


Срібний реліз (на рейтинг впливає 50% завантаженого)
 Трекер:    Зареєстрований   

Завантажити / скачати українську музику



відео для новачків



 Зареєстрований:   2013-06-25 22:01
 Розмір:   559 MB 
 Оцінка музики:   5.5/10 (Голосів: 6)
   
djneo 
Частий відвідувач


З нами з: 30.11.07
Востаннє: 10.12.16
Повідомлень: 28

2013-06-26 11:57  
Чому немає роздачі?
Ваш часовий пояс: GMT + 2 Години

Нова тема   Відповісти