Завантажити та скачати торренти українською


В’ячеслав Хурсенко - Соколята (2006) [FLAC] | Рор

Нові коментарі

Нова тема   Відповісти
Автор Повідомлення
ssTAss 
Модератор музики


З нами з: 05.07.08
Востаннє: 07.12.16
Повідомлень: 10947

2013-06-25 11:59  
В’ячеслав Хурсенко - Соколята (2006) [FLAC] | Рор

В’ячеслав Хурсенко - Соколята (2006) [FLAC] | Рор


Стиль: Pop
Країна, місто: Україна, Луцьк
Видавець: Taras Bulba Enterteiment
Виконавці:
Хурсенко В'ячеслав Володимирович
Пісні:
    1. Соколята
    2. На острові чекання
    3. Сповідь
    4. Панує ніч
    5. Я тебе розлюбив
    6. Віра, Надія, Любов
    7. Шалений час
    8. До рідного дому
    9. Ковток вина
log
Exact Audio Copy V0.99 prebeta 5 from 4. May 2009

Отчёт EAC об извлечении, выполненном 8. апреля 2011, 17:10

Вячеслав Хурсенко / Соколята

Дисковод: HL-DT-STCD-RW GCE-8525B Adapter: 0 ID: 2

Режим чтения : Достоверность
Использование точного потока : Да
Отключение кэша аудио : Да
Использование указателей C2 : Нет

Коррекция смещения при чтении : 6
Способность читать области Lead-in и Lead-out : Нет
Заполнение пропущенных сэмплов тишиной : Да
Удаление блоков с тишиной в начале и конце : Нет
При вычислениях CRC использовались нулевые сэмплы : Да
Интерфейс : Установленный внешний ASPI-интерфейс

Выходной формат : Внутренние WAV-операции
Формат сэмплов : 44.100 Гц; 16 бит; стерео

TOC извлечённого CD

Трек | Старт | Длительность | Начальный сектор | Конечный сектор
---------------------------------------------------------------------
1 | 0:00.00 | 5:29.71 | 0 | 24745
2 | 5:29.71 | 4:43.32 | 24746 | 46002
3 | 10:13.28 | 3:59.27 | 46003 | 63954
4 | 14:12.55 | 3:47.63 | 63955 | 81042
5 | 18:00.43 | 3:45.49 | 81043 | 97966
6 | 21:46.17 | 3:44.16 | 97967 | 114782
7 | 25:30.33 | 3:34.12 | 114783 | 130844
8 | 29:04.45 | 4:08.15 | 130845 | 149459
9 | 33:12.60 | 5:57.43 | 149460 | 176277

Характеристики диапазона извлечения и сообщения об ошибках

Выбранный диапазон

Имя файла G:\Закачки торент\Роздачі\Вячеслав Хурсенко - Соколята (2006)\Вячеслав Хурсенко - Соколята (2006).wav

Пиковый уровень 95.8 %
Качество диапазона 99.9 %
CRC теста EAE11905
CRC копии EAE11905
Копирование... OK

Ошибок не произошло

Конец отчёта
fooCDtect
fooCDtect - foobar2000 + auCDtect, baralgin.

auCDtect: CD records authenticity detector, version 0.8.2
Copyright (c) 2004 Oleg Berngardt. All rights reserved.
Copyright (c) 2004 Alexander Djourik. All rights reserved.

mode: 0

===========================================
Track: 01 - Соколята
Quality: CDDA 100%
===========================================
Track: 02 - На острові чекання
Quality: CDDA 100%
===========================================
Track: 03 - Сповідь
Quality: CDDA 100%
===========================================
Track: 04 - Панує ніч
Quality: CDDA 100%
===========================================
Track: 05 - Я тебе розлюбив
Quality: CDDA 100%
===========================================
Track: 06 - Віра, Надія, Любов
Quality: MPEG 89%
===========================================
Track: 07 - Шалений час
Quality: CDDA 99%
===========================================
Track: 08 - До рідного дому
Quality: CDDA 100%
===========================================
Track: 09 - Ковток вина
Quality: CDDA 100%
===========================================
Тривалість: 00:39:10
Мова: українська
Аудіо-кодек: FLAC
Бітрейт: 896 кб/с
Джерело: автор ріпу Mozart_w_a
Додаткова інформація:
Він з’явився на естраді ще на початку 1990-х років, і з тих пір завойовує симпатії все більшого числа слухачів. Цікаво, як він поєднує в своїх піснях образи вуличного хлопця-гультяя та досвідченого, навіть трохи стомленого чоловіка. Чомусь у нього ці інтонації не суперечать одна одній. Навпаки, додають якогось дивного шарму – такий собі хороший "поганий" хлопець. Різні його пісні, зрозуміло, несуть різні інтонації, але є в них усіх дещо спільне. А що саме – стає зрозуміло, коли згадаєш, що в юності взірцем для В’ячеслава Хурсенка був Юрій Антонов. Пам’ятаєте такого? Якщо ні, поясню. Творчість В’ячеслава Хурсенка – це законне, легко впізнаване дитя радянської естради 1970-80-х років. Корені його пісень лежать у піснях, які співав тоді той же самий Юрій Антонов та його колеги. Але В’ячеслав Хурсенко – не імітатор. Він – продовжувач певної естрадної традиції, виконавець із власним обличчям, почерком. Приємним обличчям і розбірливим почерком.


Якщо Ви справді бажаєте підтримати українське - після прослуховування, якщо музика вам сподобалась,
придбайте ліцензійний диск.
Підтримаймо вітчизняних виконавців!


Срібний реліз (на рейтинг впливає 50% завантаженого)
 Трекер:    Зареєстрований   

Завантажити / скачати українську музику



відео для новачків



 Зареєстрований:   2013-06-25 11:59
 Розмір:   252 MB 
 Оцінка музики:   8.3/10 (Голосів: 18)
   
lpershyi 
Попереджень: 2
Попереджень: 2 


З нами з: 04.01.11
Востаннє: 30.11.16
Повідомлень: 2622

2013-06-25 15:15  
де правда?
ssTAss написано:
Аудіо-кодек: FLAC
ssTAss написано:
В’ячеслав Хурсенко - Соколята (2006) [MP3] | Рор

цікаво яка різниця в В’ячеслав Хурсенко - Соколята (1999) [MP3] | Рор роздутий флак, перевидання, ремастерінґ?

ssTAss 
Модератор музики


З нами з: 05.07.08
Востаннє: 07.12.16
Повідомлень: 10947

2013-06-25 18:47  
lpershyi написано:
де правда?

ін віно верітас)

а серйозно, то дякую за уважність... скопіпастив назву з релізу мр3 і забув змінити
вже виправив
про якість диску можете судити з логу fooCDtect

Ваш часовий пояс: GMT + 2 Години

Нова тема   Відповісти