Завантажити та скачати торренти українською


Нокдаун / Cinderella Man (2005) 1080p Ukr/Eng | Sub Eng

Нові коментарі

Нова тема   Відповісти
Автор Повідомлення
Anonymous 







2013-06-24 19:00  
Нокдаун / Cinderella Man (2005) 1080p Ukr/Eng | Sub Eng



Альтернативний український постер


Жанр: драма, біографічний, спорт
Країна: США



Кінокомпанія: Universal Pictures, Miramax Films, Imagine Entertainment
Режисер: Рон Ховард / Ron Howard
Актори: Рассел Кроу / Russell Crowe, Рене Зеллвеґер (Renée Zellweger), Коннор Прайс / Connor Price, Нік Сміт / Nick Smith, Метью Дж. Тейлор / Matthew G. Taylor, Пол Джаматті / Paul Giamatti

Сюжет:
Зазнавши декілька поразок підряд, боксер-важковаговик Джим Бреддок змушений кинути спорт. За часів Великої депресії Бреддок береться за будь-яку роботу, щоб прогодувати свою дружину Мей та дітей. При цьому він все ще сподівається повернутися на ринг. І одного разу йому випадає такий шанс. В останню хвилину він заміняє іншого боксера і виходить на поєдинок з претендентом на титул чемпіона світу.

На диво всім, Бреддок перемагає вже в третьому раунді. Незважаючи на те, що він важить менше своїх суперників і до того ж страждає від численних травм, Джим продовжує битися і вигравати. Апофеозом же його спортивної кар'єри стає поєдинок з чемпіоном світу Максом Баєром, що убив на ринзі двох людей...


Нагороди та номінації


Оскар, 2006 рік
Номінації (3):
Краща чоловіча роль другого плану (Пол Джаматті)
Кращий монтаж
Кращий грим



Золотий глобус, 2006 рік
Номінації (2):
Краща чоловіча роль (драма) (Рассел Кроу)
Краща чоловіча роль другого плану (Пол Джаматті)


Нокдаун / Cinderella Man (2005) 1080p Ukr/Eng | Sub Eng
Британська академія кіно та телевізійного мистецтва, 2006 рік
Номінації (1):
Кращий оригінальний сценарій

Нокдаун / Cinderella Man (2005) 1080p Ukr/Eng | Sub Eng
Премія Гільдії акторів, 2006 рік
Переможець (1):
Краща чоловіча роль другого плану (Пол Джаматті)


Номінації (1):
Краща чоловіча роль (Рассел Кроу)


рейтинг MPAA: PG-13 - дітям до 13 років перегляд не бажаний
Вікова категорія: 12+

Тривалість: 02:24:21
Якість: 1080p
Відео:
кодек:
розмір кадру: 1920x816
бітрейт: 8513 кб/с

Аудіо # 1: Так Треба Продакшн на замовлення
мова: українська
переклад: багатоголосий закадровий
Ролі озвучили: Юрій Ребрик (Рассел Кроу / Джим Бреддок), Олег Стальчук, Володимир Терещук і один жіночий голос
кодек: 5.1
бітрейт: 640 кб/с

Аудіо # 2:
мова: англійська
переклад: оригінал
кодек: 5.1
бітрейт: 640 кб/с

Субтитри:
мова: англійська (повні)
тип: програмні (м'які)
формат: *.srt

Збережено оригінальні розділи, як на Blu-ray.
MediaInfo та
[info]: frame I:1336 Avg QP:14.28 size:115104
[info]: frame P:55959 Avg QP:15.37 size: 67178
[info]: frame B:150369 Avg QP:16.65 size: 36688
[info]: consecutive B-frames: 5.7% 6.3% 10.0% 27.5% 10.3% 35.9% 1.4% 1.1% 0.4% 1.4%
==================================================================================
General
Unique ID : 195307775566271315439741436151979224293 (0x92EEE8CA141D8EEABB29495998B6ACE5)
Complete name : Cinderella.Man.2005..1080p.Ukr.Eng.mkv
Format : Matroska
Format version : Version 4 / Version 2
File size : 10.1 GiB
Duration : 2h 24mn
Overall bit rate : 9 992 Kbps
Movie name : Нокдаун / Cinderella Man (2005)
Encoded date : UTC 2013-06-24 14:59:36
Writing application : mkvmerge v6.2.0 ('Promised Land') built on Apr 28 2013 12:22:01
Writing library : libebml v1.3.0 + libmatroska v1.4.0

Video
ID : 1
Format : AVC
Format/Info : Advanced Video Codec
Format profile : [email protected]
Format settings, CABAC : Yes
Format settings, ReFrames : 5 frames
Codec ID : V_MPEG4/ISO/AVC
Duration : 2h 24mn
Bit rate : 8 513 Kbps
Width : 1 920 pixels
Height : 816 pixels
Display aspect ratio : 2.35:1
Frame rate mode : Constant
Frame rate : 23.976 fps
Color space : YUV
Chroma subsampling : 4:2:0
Bit depth : 8 bits
Scan type : Progressive
Bits/(Pixel*Frame) : 0.227
Stream size : 8.58 GiB (85%)
Title : Нокдаун / Cinderella Man (2005) [Freesland-delia]
Writing library : core 133 r2334kMod a3ac64b
Encoding settings : cabac=1 / ref=5 / deblock=1:-3:-3 / analyse=0x3:0x113 / me=umh / subme=10 / psy=1 / fade_compensate=0.00 / psy_rd=1.15:0.00 / mixed_ref=1 / me_range=48 / chroma_me=1 / trellis=2 / 8x8dct=1 / cqm=0 / deadzone=21,11 / fast_pskip=1 / chroma_qp_offset=-2 / threads=6 / lookahead_threads=12 / sliced_threads=0 / nr=0 / decimate=1 / interlaced=0 / bluray_compat=0 / constrained_intra=0 / bframes=9 / b_pyramid=2 / b_adapt=2 / b_bias=0 / direct=3 / weightb=1 / open_gop=0 / weightp=2 / keyint=250 / keyint_min=23 / scenecut=40 / intra_refresh=0 / rc_lookahead=40 / rc=crf / mbtree=0 / crf=18.0000 / qcomp=0.75 / qpmin=0 / qpmax=69 / qpstep=4 / vbv_maxrate=62500 / vbv_bufsize=78125 / crf_max=0.0 / nal_hrd=none / ip_ratio=1.30 / pb_ratio=1.20 / aq=1:0.80
Default : Yes
Forced : No
Color primaries : BT.709
Transfer characteristics : BT.709
Matrix coefficients : BT.709

Audio #1
ID : 2
Format : AC-3
Format/Info : Audio Coding 3
Mode extension : CM (complete main)
Format settings, Endianness : Big
Codec ID : A_AC3
Duration : 2h 24mn
Bit rate mode : Constant
Bit rate : 640 Kbps
Channel(s) : 6 channels
Channel positions : Front: L C R, Side: L R, LFE
Sampling rate : 48.0 KHz
Bit depth : 16 bits
Compression mode : Lossy
Stream size : 661 MiB (6%)
Title : MVO [TakTrebaProduction - ICTV] 5.1 640 Kbps [HDClub-serin]
Language : Ukrainian
Default : Yes
Forced : No

Audio #2
ID : 3
Format : AC-3
Format/Info : Audio Coding 3
Mode extension : CM (complete main)
Format settings, Endianness : Big
Codec ID : A_AC3
Duration : 2h 24mn
Bit rate mode : Constant
Bit rate : 640 Kbps
Channel(s) : 6 channels
Channel positions : Front: L C R, Side: L R, LFE
Sampling rate : 48.0 KHz
Bit depth : 16 bits
Compression mode : Lossy
Stream size : 661 MiB (6%)
Title : Original 5.1 640 Kbps
Language : English
Default : No
Forced : No

Text
ID : 4
Format : UTF-8
Codec ID : S_TEXT/UTF8
Codec ID/Info : UTF-8 Plain Text
Title : Eng full
Language : English
Default : No
Forced : No

Menu
00:00:00.000 : en:End Credits
00:08:00.021 : en:Championship Round
00:16:23.023 : en:The Main Event
00:23:22.818 : en:Tremendous Underdog
00:28:37.382 : en:Find a Way Out
00:38:53.039 : en:Giving Hope
00:44:00.179 : en:Know What You're Fighting For
00:49:00.853 : en:Count Your Blessings
00:58:43.686 : en:Don't Back Down
01:02:53.186 : en:Getting Serious
01:10:40.694 : en:Back to Even
01:14:48.274 : en:Sizing Up the Champ
01:22:51.299 : en:Going in Hungry
01:28:17.000 : en:One Last Chance
01:36:17.938 : en:Emergency Relief
01:40:44.162 : en:Cut Off
01:44:23.799 : en:Decommisioned
01:54:34.742 : en:Washed-Up
02:04:41.807 : en:Past Due
02:17:43.379 : en:The Next Champ
02:24:14.145 : en:The Next Champ


Джерела та подяки: ріп відео, оригінальні субтитри - delia (Freesland); українська та оригінальна доріжки - serin ; український постер - bogdan8249 (Гуртом).

Особиста оцінка: 8 - мені сподобалося

ЗАЛИШАЙТЕСЬ ЯКОМОГА ДОВШЕ НА РОЗДАЧІ!

СКАЧАВ САМ - ДАЙ СКАЧАТИ ІНШИМ


 Трекер:    Зареєстрований   

Завантажити / скачати фільм українською



відео для новачків



 Зареєстрований:   2013-06-24 19:00
 Розмір:   10.08 GB 
 Оцінка фільму:   5/10 (Голосів: 18)
   
Інші релізи
   Нокдаун / Cinderella Man (2005) 720p Ukr/Eng | Sub Eng igor911  2 / 0   7.77 GB   2015-03-12 18:49 
   Нокдаун / Cinderella Man (2005) AVC Ukr/Eng | Sub Eng igor911  4 / 0   3.42 GB   2014-05-13 20:05 
   Нокдаун / Cinderella Man (2005) Ukr/Eng | Sub Eng bogdan8249  11 / 0   2.91 GB   2009-09-09 22:33 
peacemakerua 
Новенький


З нами з: 24.03.13
Востаннє: 03.12.16
Повідомлень: 4

2013-06-24 19:30  
крутяцьке кіно, одне із найулюбленіших
Байда Віктор 
Новенький


З нами з: 21.03.13
Востаннє: 03.12.16
Повідомлень: 18

2014-04-30 23:23  
А можна зробити ще один реліз цього фільму також в HD але щоб був приблизно під три гігібайти? Будь-ласка : )
Anonymous 







2014-04-30 23:33  
В розділі HD навряд чи можливо зробити реліз пристойної якості під 3 Гб з двома доріжками фільму у 2,5 год. Якщо критичний розмір - дивіться наявний SD реліз на 2/3 ДВД, також можете замовити AVC реліз у відповідній темі: http://toloka.to/t6789
Ваш часовий пояс: GMT + 2 Години

Нова тема   Відповісти