Завантажити та скачати торренти українською


Суддя Дредд 3D / Dredd 3D (2012) 1080p Ukr/Eng

Нові коментарі

Нова тема   Відповісти
Автор Повідомлення
seroga13 
VIP


З нами з: 22.06.09
Востаннє: 02.12.16
Повідомлень: 257

2013-06-22 10:34  
Суддя Дредд 3D / Dredd 3D (2012) 1080p Ukr/Eng

Суддя Дредд 3D / Dredd 3D (2012) 1080p Ukr/Eng


Жанр: кримінальний, фантастика, трилер
Країна: Велика Британія, США, Індія



Кінокомпанія: DNA Films, IM Global, Reliance Entertainment
Режисер: Піт Трейвіс
Актори: Карл Урбан, Олівія Тірлбі, Ліна Гіді, Вуд Харріс, Рейчел Вуд

Сюжет:
У жорстокому, футуристичному місті за порядок відповідає Міністерство Юстиції, працівники якого, Судді, мають повноваження судді, присяжних та ката. Знаменитий Суддя Дредд разом із стажером потрапляє в лігво банди наркоторговців, які розповсюджують новий наркотик, що змінює реальність, Лета.


Тривалість: 01:35:51
Якість:
Відео:
кодек: MPEG-4 AVC,
розмір кадру: 1920x1080
бітрейт: 13813 кб/с

Аудіо:
мова: українська | "Студія Омікрон" |
переклад: багатоголосий закадровий
кодек: 5.1
бітрейт: 448 кб/с

Аудіо # 2:
мова: англійська
переклад: оригінал
кодек: 5.1
бітрейт: 1 509 кб/с
MediaInfo
General
Unique ID : 198198010508697220094855059391749372673 (0x951B8C5FB9EF952F88175B198C4D3B01)
Complete name : C:UsersOlegDownloadsdredd.2012.1080p.bluray.3D..-publichd.mkv
Format : Matroska
Format version : Version 2
File size : 10.8 GiB
Duration : 1h 35mn
Overall bit rate : 16.1 Mbps
Encoded date : UTC 2012-12-30 03:51:58
Writing application : mkvmerge v5.8.0 ('No Sleep / Pillow') built on Sep 2 2012 15:37:04
Writing library : libebml v1.2.3 + libmatroska v1.3.0

Video
ID : 1
Format : AVC
Format/Info : Advanced Video Codec
Format profile : [email protected]
Format settings, CABAC : Yes
Format settings, ReFrames : 2 frames
Codec ID : V_MPEG4/ISO/AVC
Duration : 1h 35mn
Bit rate : 13.8 Mbps
Width : 1 920 pixels
Height : 1 080 pixels
Display aspect ratio : 16:9
Frame rate mode : Constant
Frame rate : 23.976 fps
Color space : YUV
Chroma subsampling : 4:2:0
Bit depth : 8 bits
Scan type : Progressive
Bits/(Pixel*Frame) : 0.278
Stream size : 9.25 GiB (86%)
Writing library : core
Language : English
Default : Yes
Forced : No
Color primaries : BT.709
Transfer characteristics : BT.709
Matrix coefficients : BT.709

Audio #1
ID : 2
Format : AC-3
Format/Info : Audio Coding 3
Mode extension : CM (complete main)
Format settings, Endianness : Big
Codec ID : A_AC3
Duration : 1h 35mn
Bit rate mode : Constant
Bit rate : 448 Kbps
Channel(s) : 6 channels
Channel positions : Front: L C R, Side: L R, LFE
Sampling rate : 48.0 KHz
Bit depth : 16 bits
Compression mode : Lossy
Stream size : 307 MiB (3%)
Language : Ukrainian
Default : Yes
Forced : No

Audio #2
ID : 3
Format :
Format/Info : Digital Theater Systems
Mode : 16
Format settings, Endianness : Big
Codec ID : A_DTS
Duration : 1h 35mn
Bit rate mode : Constant
Bit rate : 1 509 Kbps
Channel(s) : 6 channels
Channel positions : Front: L C R, Side: L R, LFE
Sampling rate : 48.0 KHz
Bit depth : 24 bits
Compression mode : Lossy
Stream size : 1.01 GiB (9%)
Language : English
Default : No
Forced : No
Скріншоти


Відео виконане в форматі 3D! Для перегляду потрібні спеціальні окуляри та стереоплеєр або телевізор з підтримкою технології 3D!

Інструкції щодо перегляду відео у форматі 3D


Джерело:
Особиста оцінка: 10 - без зайвих вагань рекомендую всім!


 Трекер:    Зареєстрований   

Завантажити / скачати фільм українською



відео для новачків



 Зареєстрований:   2013-06-24 23:16
 Розмір:   10.77 GB 
 Оцінка фільму:   6.1/10 (Голосів: 10)
   
ratbol 
Модератор HD


З нами з: 03.02.09
Востаннє: 01.12.16
Повідомлень: 1088

2013-06-22 10:48  
Повинна бути оригінальна доріжка.
Також треба замінити скріншоти, вони мають бути у форматі png.

bot 
робот


З нами з: 30.09.07
Востаннє: 26.05.05
Повідомлень: 15965

2013-06-24 23:15  
Тему перенесено з Неоформлене відео до форуму Фільми в HD


ratbol

Ваш часовий пояс: GMT + 2 Години

Нова тема   Відповісти