Завантажити та скачати торренти українською


Джек - вбивця велетнів / Jack the Giant Slayer (2013) 720p Ukr/Eng | sub Eng

Нові коментарі

Нова тема   Відповісти
Автор Повідомлення
Sando7 
Відео Гуртом - запис з ТБ
Відео Гуртом - запис з ТБ


З нами з: 04.05.09
Востаннє: 06.12.16
Повідомлень: 840

2013-06-18 19:59  
Джек - вбивця велетнів / Jack the Giant Slayer (2013) 720p Ukr/Eng | sub Eng


Жанр: пригодницький, фентезі
Країна: США



Кінокомпанія: New Line Cinema, Legendary Pictures, Original Film
Режисер: Браян Сінґер
Актори: Ніколас Голт, Елінор Томлінсон, Юен МакҐреґор, Стенлі Туччі, Йен МакШейн, Едді Марсан, Юен Бремнер

Сюжет:
Нова інтерпретація відомої казки "Джек і бобове стебло". Цей захоплюючий фентезійний фільм розповість про небезпечне протистояння людської раси і небесного народу — злих велетнів. Річ у тім, що колись земля належала саме велетням, поки якийсь герой не прогнав їх. Тепер, захопивши в полон принцесу, стародавній народ збирається повернути своє. І єдиний, хто може цьому перешкодити — простий фермер на ім'я Джек.


Тривалість: 01:54:20
Якість: 720p
Відео:
кодек:
розмір кадру: 1280 x 534
бітрейт: 6000 кб/с

Аудіо # 1:
мова: українська
переклад: професійний дубльований
кодек: 5.1
бітрейт: 640 кб/с

Аудіо # 2:
мова: англійська
переклад: оригінал
кодек: 5.1
бітрейт: 1536 кб/с

Субтитри:
мова: англійська
тип: програмні (м'які)
формат: *.ass
MediaInfo
General
Unique ID : 205965012863797941971822690260396907191 (0x9AF36B27DD909B4089AD84CB6A8D9AB7)
Complete name : C:\Users\sando7\Desktop\Jack.the.Giant.Slayer.2013.720p.BluRay.Ukr.Eng.IRONCLUB.mkv
Format : Matroska
Format version : Version 2
File size : 6.51 GiB
Duration : 1h 54mn
Overall bit rate : 8 150 Kbps
Movie name : IRONCLUB
Encoded date : UTC 2013-06-18 17:35:34
Writing application : mkvmerge v5.6.0 ('Kenya Kane') built on May 27 2012 16:44:04
Writing library : libebml v1.2.3 + libmatroska v1.3.0
Attachment : Yes / Yes / Yes

Video
ID : 1
Format : AVC
Format/Info : Advanced Video Codec
Format profile : [email protected]
Format settings, CABAC : Yes
Format settings, ReFrames : 12 frames
Codec ID : V_MPEG4/ISO/AVC
Duration : 1h 54mn
Bit rate : 6 000 Kbps
Width : 1 280 pixels
Height : 534 pixels
Display aspect ratio : 2.40:1
Frame rate mode : Constant
Frame rate : 23.976 fps
Color space : YUV
Chroma subsampling : 4:2:0
Bit depth : 8 bits
Scan type : Progressive
Bits/(Pixel*Frame) : 0.366
Stream size : 4.66 GiB (72%)
Title : Jack.the.Giant.Slayer.2013.720p.BluRay..-DON
Writing library : core 133 r2334 a3ac64b
Encoding settings : cabac=1 / ref=12 / deblock=1:-2:-2 / analyse=0x3:0x133 / me=esa / subme=10 / psy=1 / psy_rd=0.90:0.00 / mixed_ref=1 / me_range=24 / chroma_me=1 / trellis=2 / 8x8dct=1 / cqm=0 / deadzone=21,11 / fast_pskip=0 / chroma_qp_offset=-2 / threads=3 / lookahead_threads=1 / sliced_threads=0 / nr=0 / decimate=0 / interlaced=0 / bluray_compat=0 / constrained_intra=0 / bframes=6 / b_pyramid=2 / b_adapt=2 / b_bias=0 / direct=3 / weightb=1 / open_gop=0 / weightp=2 / keyint=250 / keyint_min=23 / scenecut=40 / intra_refresh=0 / rc_lookahead=60 / rc=2pass / mbtree=0 / bitrate=6000 / ratetol=1.0 / qcomp=0.60 / qpmin=0 / qpmax=69 / qpstep=4 / cplxblur=20.0 / qblur=0.5 / vbv_maxrate=50000 / vbv_bufsize=62500 / nal_hrd=none / ip_ratio=1.20 / pb_ratio=1.10 / aq=1:0.75
Language : English
Default : Yes
Forced : Yes

Audio #1
ID : 2
Format : AC-3
Format/Info : Audio Coding 3
Mode extension : CM (complete main)
Format settings, Endianness : Big
Codec ID : A_AC3
Duration : 1h 54mn
Bit rate mode : Constant
Bit rate : 640 Kbps
Channel(s) : 6 channels
Channel positions : Front: L C R, Side: L R, LFE
Sampling rate : 48.0 KHz
Bit depth : 16 bits
Compression mode : Lossy
Stream size : 524 MiB (8%)
Title : DD 5.1 @ 640 kbps - Dub, BD CEE
Language : Ukrainian
Default : Yes
Forced : Yes

Audio #2
ID : 3
Format :
Format/Info : Digital Theater Systems
Mode : 16
Format settings, Endianness : Big
Codec ID : A_DTS
Duration : 1h 54mn
Bit rate mode : Constant
Bit rate : 1 509 Kbps
Channel(s) : 6 channels
Channel positions : Front: L C R, Side: L R, LFE
Sampling rate : 48.0 KHz
Bit depth : 24 bits
Compression mode : Lossy
Stream size : 1.21 GiB (19%)
Title : 5.1 @ 1536 kbps
Language : English
Default : No
Forced : No

Text #1
ID : 4
Format : ASS
Codec ID : S_TEXT/ASS
Codec ID/Info : Advanced Sub Station Alpha
Compression mode : Lossless
Language : English
Default : No
Forced : No

Text #2
ID : 5
Format : ASS
Codec ID : S_TEXT/ASS
Codec ID/Info : Advanced Sub Station Alpha
Compression mode : Lossless
Title : SDH
Language : English
Default : No
Forced : No

Menu
00:00:00.000 : en:00:00:00.000
00:10:21.370 : en:00:10:21.370
00:19:23.745 : en:00:19:23.745
00:29:52.207 : en:00:29:52.207
00:38:55.374 : en:00:38:55.374
00:49:24.878 : en:00:49:24.878
00:59:35.488 : en:00:59:35.488
01:09:26.287 : en:01:09:26.287
01:20:39.167 : en:01:20:39.167
01:29:51.302 : en:01:29:51.302
01:39:02.811 : en:01:39:02.811
01:45:57.726 : en:01:45:57.726


Джерело: IRONCLUB
Особиста оцінка: 0 - не дивився


 Трекер:    Зареєстрований   

Завантажити / скачати фільм українською



відео для новачків



 Зареєстрований:   2013-06-18 19:59
 Розмір:   6.51 GB 
 Оцінка фільму:   8.9/10 (Голосів: 20)
   
mix14 
Поважний учасник


З нами з: 29.08.11
Востаннє: 05.12.16
Повідомлень: 152

2013-06-18 20:09  
Укр. субтитрів немає?
Sando7 
Відео Гуртом - запис з ТБ
Відео Гуртом - запис з ТБ


З нами з: 04.05.09
Востаннє: 06.12.16
Повідомлень: 840

2013-06-18 20:11  
mix14 написано:
Укр. субтитрів немає?

На жаль ні..немає

11FrYkT 
Модератор відео


З нами з: 20.02.11
Востаннє: 06.12.16
Повідомлень: 3100

2013-06-18 20:12  
Sando7 , та є(форсовані) просто трішки потрібно було зачекати
Sando7 
Відео Гуртом - запис з ТБ
Відео Гуртом - запис з ТБ


З нами з: 04.05.09
Востаннє: 06.12.16
Повідомлень: 840

2013-06-18 20:15  
11FrYkT написано:
Sando7 , та є(форсовані) просто трішки потрібно було зачекати

скиньте мені хто має ..я їх приліплю поки не пішла роздача, ну як ні в кого немає то тоді буду роздавати так

11FrYkT 
Модератор відео


З нами з: 20.02.11
Востаннє: 06.12.16
Повідомлень: 3100

2013-06-18 20:26  
Sando7 , можу кинути але там три фрази
oleh19 
Частий відвідувач


З нами з: 22.06.08
Востаннє: 05.12.16
Повідомлень: 31

2013-06-18 21:47  
А можна укр. звукову доріжку окремо?
Sando7 
Відео Гуртом - запис з ТБ
Відео Гуртом - запис з ТБ


З нами з: 04.05.09
Востаннє: 06.12.16
Повідомлень: 840

2013-06-18 21:51  
oleh19 написано:
А можна укр. звукову доріжку окремо?

дивіться в приват повідомлені

waldi-hurtom 
VIP


З нами з: 07.10.12
Востаннє: 05.12.16
Повідомлень: 611

2013-07-08 15:52  
Повна лажа! Після Володаря перснів та Гарі Потера - повний відстій! Мабуть, для дітей дошкільного віку. 1/10
Ваш часовий пояс: GMT + 2 Години

Нова тема   Відповісти