Завантажити та скачати торренти українською


Цілком таємно / Top Secret! (1984) 720p Ukr/Eng | Sub Eng

Нові коментарі

Нова тема   Відповісти
Автор Повідомлення
pohgejib 
VIP


З нами з: 06.06.08
Востаннє: 26.11.16
Повідомлень: 362

2013-06-17 18:20  
Цілком таємно / Top Secret! (1984) 720p Ukr/Eng | Sub Eng

Цілком таємно / Top Secret! (1984) 720p Ukr/Eng | Sub Eng


Жанр: пародія, комедія
Країна: США



Кінокомпанія: Kingsmere Properties, Paramount Pictures
Режисер: Джим Ейбрахамс (Jim Abrahams), Девід Цукер (David Zucker), Джеррі Цукер (Jerry Zucker)
Актори: Вел Кілмер (Val Kilmer), Люсі Гатрідж (Lucy Gutteridge), Омар Шариф (Omar Sharif), Пітер Кашін (Peter Cushing), Джеремі Кемп (Jeremy Kemp)

Сюжет:
Фільм розповідає про Ніка Ріверса (Кілмер), американського поп-співака (чиї пісні надзвичайно схожі на твори Елвіса Преслі, Біч Бойз та Літл Річарда), який прибуває до Східної Німеччини для виступу на фестиваль мистецтв. (Як виявилося, Східна Німеччина ще перебуває під диктатом нацизму і під атакою Французького опору.) Перебуваючи там, він (Нік Ріверс) стає втягнутим в рух опору і допомагає красуні Гіллері Флемонд врятувати її батька, видатного вченого, затриманого німцями й вимушеного будувати смертоносну магнітну міну Поляріс.


Тривалість: 01:26:24
Якість: (CtrlHD)
Відео:
кодек:
розмір кадру: 1280 х 720
бітрейт: 4842 кб/с

Аудіо # 1:
мова: українська
переклад: багатоголосий закадровий
кодек: 2.0
бітрейт: 192 кб/с

Аудіо # 2:
мова: англійська
переклад: оригінал
кодек: 2.0
бітрейт: 384 кб/с

Джерело озвучення:


Субтитри:
мова: англійська
тип: програмні (м'які)
формат: *.srt
MediaInfo
D:\Downloads\Top.Secret.1984.HDTV.720p.Ukr.Eng.hurtom.com.mkv
General
Unique ID : 195787369794586712498065687534949046297 (0x934B469C45A062908896E2B432571819)
Complete name : D:\Downloads\Top.Secret.1984.HDTV.720p.Ukr.Eng.hurtom.com.mkv
Format : Matroska
Format version : Version 2
File size : 3.40 GiB
Duration : 1h 30mn
Overall bit rate : 5 405 Kbps
Movie name : ~Sahaa~
Encoded date : UTC 2013-06-17 15:54:54
Writing application : mkvmerge v4.7.0 ('Just Like You Imagined') ç³áðàíî Apr 21 2011 01:13:14
Writing library : libebml v1.2.0 + libmatroska v1.1.0
Video #1
ID : 1
Format : AVC
Format/Info : Advanced Video Codec
Format profile : [email protected]
Format settings, CABAC : Yes
Format settings, ReFrames : 9 frames
Codec ID : V_MPEG4/ISO/AVC
Duration : 1h 30mn
Bit rate : 4 842 Kbps
Width : 1 280 pixels
Height : 720 pixels
Display aspect ratio : 16:9
Frame rate mode : Constant
Frame rate : 23.976 fps
Color space : YUV
Chroma subsampling : 4:2:0
Bit depth : 8 bits
Scan type : Progressive
Bits/(Pixel*Frame) : 0.219
Stream size : 2.97 GiB (87%)
Writing library : core 94 r1583 7608d73
Encoding settings : cabac=1 / ref=9 / deblock=1:-2:-2 / analyse=0x3:0x133 / me=umh / subme=10 / psy=1 / psy_rd=1.20:0.00 / mixed_ref=1 / me_range=24 / chroma_me=1 / trellis=2 / 8x8dct=1 / cqm=0 / deadzone=21,11 / fast_pskip=1 / chroma_qp_offset=-2 / threads=6 / sliced_threads=0 / nr=0 / decimate=1 / interlaced=0 / constrained_intra=0 / bframes=7 / b_pyramid=2 / b_adapt=2 / b_bias=0 / direct=3 / weightb=1 / weightp=2 / keyint=250 / keyint_min=25 / scenecut=40 / intra_refresh=0 / rc_lookahead=40 / rc=2pass / mbtree=1 / bitrate=4842 / ratetol=1.0 / qcomp=0.60 / qpmin=10 / qpmax=51 / qpstep=4 / cplxblur=20.0 / qblur=0.5 / ip_ratio=1.40 / aq=1:1.20
Language : English
Default : No
Forced : No
Audio #2
ID : 2
Format : AC-3
Format/Info : Audio Coding 3
Mode extension : CM (complete main)
Format settings, Endianness : Big
Codec ID : A_AC3
Duration : 1h 30mn
Bit rate mode : Constant
Bit rate : 192 Kbps
Channel(s) : 2 channels
Channel positions : Front: L R
Sampling rate : 48.0 KHz
Bit depth : 16 bits
Compression mode : Lossy
Stream size : 124 MiB (4%)
Title : Українська (hurtom.com)
Language : Ukrainian
Default : Yes
Forced : Yes
Audio #3
ID : 3
Format : AC-3
Format/Info : Audio Coding 3
Mode extension : CM (complete main)
Format settings, Endianness : Big
Codec ID : A_AC3
Duration : 1h 30mn
Bit rate mode : Constant
Bit rate : 384 Kbps
Channel(s) : 2 channels
Channel positions : Front: L R
Sampling rate : 48.0 KHz
Bit depth : 16 bits
Compression mode : Lossy
Delay relative to video : 32ms
Stream size : 247 MiB (7%)
Title : English
Language : English
Default : No
Forced : No
Text #4
ID : 4
Format : UTF-8
Codec ID : S_TEXT/UTF8
Codec ID/Info : UTF-8 Plain Text
Title : English
Language : English
Default : Yes
Forced : No

Скріншоти


Джерело: &
Особиста оцінка: 10 - для любителя "Голого пістолета")


Срібний реліз (на рейтинг впливає 50% завантаженого)
 Трекер:    Зареєстрований   

Завантажити / скачати фільм українською



відео для новачків



 Зареєстрований:   2013-06-17 18:20
 Розмір:   3.4 GB 
 Оцінка фільму:   10/10 (Голосів: 7)
   
Інші релізи
   Цілком таємно / Top Secret! (1984) [MP4, 640x] apvAltisimo  0 / 0   579 MB   2016-06-22 15:56 
   Цілком таємно / Top Secret! (1984) Ukr/Eng Ramirezz  3 / 0   1.36 GB   2014-11-27 20:27 
   Цілком таємно / Top Secret! (1984) Ukr/Eng ProgBassing  0 / 0   821 MB   2008-09-26 08:29 
patriot2305 
Почесний гуртомівець


З нами з: 23.04.11
Востаннє: 08.12.16
Повідомлень: 4145

2013-06-17 18:29  
Зробіть хтось будь ласка ріп на 1.45
ninenine 
Відео Гуртом - фільмокрай
Відео Гуртом - фільмокрай


З нами з: 23.10.09
Востаннє: 08.12.16
Повідомлень: 1147

2014-11-28 13:36  
Станьте будь ласка на роздачу.
fozzy412 
Свій


З нами з: 15.03.14
Востаннє: 08.12.16
Повідомлень: 68

2015-04-08 16:22  
Як в порiвняннi з росiйською?
Ваш часовий пояс: GMT + 2 Години

Нова тема   Відповісти