Завантажити та скачати торренти українською


VA - Маzепа fest (2006) [WV] | Rock

Нові коментарі

Нова тема   Відповісти
Останній раз роздавалося Myfordownloads (2016-10-05)
Автор Повідомлення
ssTAss 
Модератор музики


З нами з: 05.07.08
Востаннє: 10.12.16
Повідомлень: 10954

2013-06-16 23:22  
VA - Маzепа fest (2006) [WV] | Rock

VA - Маzепа fest (2006) [WV] | Rock


Стиль: Ska, Rock, Metal
Країна: Україна
Видавець: Наш Формат | Саме Так!
Виконавці:
VA
Пісні:
    01. Абздольц - Чебурашка
    02. Вертеп - Горицвіт
    03. Без Обмежень - Магдалена
    04. О.Торвальд - Хчеться мені на все забити
    05. Хорта - Зозуля
    06. Онейроїд - Бетонне лезо
    07. BIOS - Я сама не своя
    08. Тінь Сонця - В дикім полі
    09. Chill Out - Знову сам
    10. Пінс - Без тебе
    11. Широко закриті очі - Гопак
    12. Транс-Формер - Калина
    13. Арахнофобія - Тільки б не війна
    14. Файно - Сонця в калюжах
    15. White - Кинь тачку
    16. Н.Три - Чужа війна
log
Exact Audio Copy V1.0 beta 3 from 29. August 2011

EAC extraction logfile from 8. May 2013, 23:04

Various / Мазепа Fest. Полтава 2006

Used drive : SAMSUNG CD-ROM SC-152C Adapter: 0 ID: 0

Read mode : Secure
Utilize accurate stream : Yes
Defeat audio cache : Yes
Make use of C2 pointers : No

Read offset correction : 600
Overread into Lead-In and Lead-Out : No
Fill up missing offset samples with silence : Yes
Delete leading and trailing silent blocks : No
Null samples used in CRC calculations : Yes
Used interface : Native Win32 interface for Win NT & 2000

Used output format : User Defined Encoder
Selected bitrate : 1024 kBit/s
Quality : High
Add ID3 tag : No
Command line compressor : C:\Blade\Programs\wavpack-4.60.1\wavpack.exe
Additional command line options : -hlmx2 %source% %dest%

TOC of the extracted CD

Track | Start | Length | Start sector | End sector
---------------------------------------------------------
1 | 0:00.00 | 4:49.22 | 0 | 21696
2 | 4:49.22 | 4:29.43 | 21697 | 41914
3 | 9:18.65 | 4:27.49 | 41915 | 61988
4 | 13:46.39 | 3:05.57 | 61989 | 75920
5 | 16:52.21 | 4:52.60 | 75921 | 97880
6 | 21:45.06 | 3:57.63 | 97881 | 115718
7 | 25:42.69 | 3:56.13 | 115719 | 133431
8 | 29:39.07 | 4:25.31 | 133432 | 153337
9 | 34:04.38 | 4:04.69 | 153338 | 171706
10 | 38:09.32 | 5:07.07 | 171707 | 194738
11 | 43:16.39 | 3:36.15 | 194739 | 210953
12 | 46:52.54 | 3:40.37 | 210954 | 227490
13 | 50:33.16 | 2:38.07 | 227491 | 239347
14 | 53:11.23 | 3:41.29 | 239348 | 255951
15 | 56:52.52 | 2:33.27 | 255952 | 267453
16 | 59:26.04 | 4:13.55 | 267454 | 286483

Range status and errors

Selected range

Filename C:\Blade\music\work\Various - Mazepa Fest. Poltava 2006.wav

Peak level 99.0 %
Extraction speed 1.4 X
Range quality 99.9 %
Test CRC 695D1025
Copy CRC 695D1025
Copy OK

No errors occurred

AccurateRip summary

Track 1 not present in database
Track 2 not present in database
Track 3 not present in database
Track 4 not present in database
Track 5 not present in database
Track 6 not present in database
Track 7 not present in database
Track 8 not present in database
Track 9 not present in database
Track 10 not present in database
Track 11 not present in database
Track 12 not present in database
Track 13 not present in database
Track 14 not present in database
Track 15 not present in database
Track 16 not present in database

None of the tracks are present in the AccurateRip database

End of status report

---- CUETools DB Plugin V2.1.3

[CTDB TOCID: fhDnimuDBxJ.a0X6OXPMRkmhTZY-] disk not present in database, Submit result: database access error: The request was aborted: The request was canceled.

==== Log checksum AAC50835358D24E82DB629A5B84BD363ECECC94459F3CE6B8E17AEA8FE4EF4EF ====
fooCDtect
fooCDtect - foobar2000 + auCDtect, baralgin.

auCDtect: CD records authenticity detector, version 0.8.2
Copyright (c) 2004 Oleg Berngardt. All rights reserved.
Copyright (c) 2004 Alexander Djourik. All rights reserved.

mode: 0

===========================================
Track: 01 - Чебурашка
Quality: CDDA 100%
===========================================
Track: 02 - Горицвіт
Quality: CDDA 99%
===========================================
Track: 03 - Магдалена
Quality: MPEG 95%
===========================================
Track: 04 - Хочеться мені на все забити
Quality: MPEG 95%
===========================================
Track: 05 - Зозуля
Quality: CDDA 100%
===========================================
Track: 06 - Бетонне лезо
Quality: CDDA 100%
===========================================
Track: 07 - Я сама не своя
Quality: CDDA 99%
===========================================
Track: 08 - В дикім полі
Quality: CDDA 100%
===========================================
Track: 09 - Знову сам
Quality: CDDA 100%
===========================================
Track: 10 - Без тебе
Quality: CDDA 100%
===========================================
Track: 11 - Гопак
Quality: CDDA 99%
===========================================
Track: 12 - Калина
Quality: CDDA 100%
===========================================
Track: 13 - Тільки б не війна
Quality: MPEG 100%
===========================================
Track: 14 - Сонця в калюжах
Quality: CDDA 100%
===========================================
Track: 15 - Кинь тачку
Quality: CDDA 100%
===========================================
Track: 16 - Чужа війна
Quality: CDDA 100%
===========================================
Тривалість: 01:03:40
Мова: українська
Аудіо-кодек: WavPack
Бітрейт: 969 кб/с
Джерело: нетлаб
Додаткова інформація:
З кожним роком Мазепа-фест стає все більш цікавим та різноманітним – це очевидно. Приємно спостерігати, що в українській рок-музиці з’являється все більше виразних облич, які заслуговують на увагу. Власне, більшість із представлених тут гуртів вже встигли не тільки голосно про себе заявити виступами, а й видати по платівці (дехто і по дві-три). Решта ж тільки готується до виходу дебютних альбомів, але вже зараз можна сказати, що вони – гідне поповнення нашого рок-фронту. Ви знайдете тут суміші, в яких присутні і фольк-рок, і метал, і хардкор, і ска, і т.д. Всього потроху, адже це альтернативна музика – але не надто важка, тому збірка може бути цікавою і для тих, хто не звик занурюватись у музичні перенавантаження. Щоправда, тут представлено студійні записи, а не нотатки з концерту – але не всі ж полюбляють концертні записи, та й не завжди вони існують в належній якості. Отже, зустрічайте – молоде і відоме обличчя української рок-музики.


Якщо Ви справді бажаєте підтримати українське - після прослуховування, якщо музика вам сподобалась,
придбайте ліцензійний диск ТУТ.
Підтримаймо вітчизняних виконавців!


Срібний реліз (на рейтинг впливає 50% завантаженого)
 Трекер:    Зареєстрований   

Завантажити / скачати українську музику



відео для новачків



 Зареєстрований:   2013-06-16 23:22
 Розмір:   506 MB 
 Оцінка музики:   5.5/10 (Голосів: 6)
   
Ваш часовий пояс: GMT + 2 Години

Нова тема   Відповісти