Завантажити та скачати торренти українською


Оксана Муха - RE:SHETO (2010) [APE] | Folk

Нові коментарі

Нова тема   Відповісти
Автор Повідомлення
civ 
VIP


З нами з: 16.02.11
Востаннє: 04.12.16
Повідомлень: 429

2013-06-13 20:21  
Оксана Муха - RE:SHETO (2010) [APE] | Folk

Стиль: Folk
Країна, місто: Україна, Львів
Сайти: Офіційний сайт
Видавець: автор
Виконавці:
Оксана Муха
запис, премастерінг: Дмитро Кацал
обробка: Володимир Сватенко
мастерінг: Олег Мишловський
студія звукозапису: МО "Дударик-назавжди"
Пісні:
    01. Посiяла конопельки [03:31]
    02. Йшли корови iз дiброви [04:27]
    03. Хлопцi, риболовцi [03:33]
    04. Стоїть дiвча над бистрою водою [04:10]
    05. Чи справдi [03:11]
    06. Ой, чорна я си чорна [03:04]
    07. Та нема того Миколи [03:19]
    08. Порiзала м пальчик та й болить [02:08]
    09. На каменi ноги мию [02:35]
    10. Тече вода каламутна [03:06]
    11. Ой, мiсяцю, мiсяченьку [03:17]
    12. За рiчкою, за Дунаєм [02:18]
    13. Два колечка [03:25]
    14. Je ne sais pas [02:44]
    15. Дивная новина [03:52]

Тривалість: 00:48:41
Мова: українська, французька (14)
Аудіо-кодек: APE
Бітрейт: 792 кб/с
Джерело: компакт-диск
Тип ріпу: image+cue+обкладинки
EAC Log

Exact Audio Copy V1.0 beta 3 from 29. August 2011

EAC extraction logfile from 13. January 2013, 14:28

Оксана Муха / RE:SHETO

Used drive : MATSHITADVD-RAM UJ8C1 Adapter: 1 ID: 0

Read mode : Secure
Utilize accurate stream : Yes
Defeat audio cache : Yes
Make use of C2 pointers : No

Read offset correction : 6
Overread into Lead-In and Lead-Out : No
Fill up missing offset samples with silence : Yes
Delete leading and trailing silent blocks : No
Null samples used in CRC calculations : Yes
Used interface : Native Win32 interface for Win NT & 2000

Used output format : Internal WAV Routines
Sample format : 44.100 Hz; 16 Bit; Stereo

TOC of the extracted CD

Track | Start | Length | Start sector | End sector
---------------------------------------------------------
1 | 0:00.00 | 3:30.71 | 0 | 15820
2 | 3:30.71 | 4:26.57 | 15821 | 35827
3 | 7:57.53 | 3:33.34 | 35828 | 51836
4 | 11:31.12 | 4:10.07 | 51837 | 70593
5 | 15:41.19 | 3:10.59 | 70594 | 84902
6 | 18:52.03 | 3:04.28 | 84903 | 98730
7 | 21:56.31 | 3:19.21 | 98731 | 113676
8 | 25:15.52 | 2:08.26 | 113677 | 123302
9 | 27:24.03 | 2:34.49 | 123303 | 134901
10 | 29:58.52 | 3:06.04 | 134902 | 148855
11 | 33:04.56 | 3:16.74 | 148856 | 163629
12 | 36:21.55 | 2:18.08 | 163630 | 173987
13 | 38:39.63 | 3:25.18 | 173988 | 189380
14 | 42:05.06 | 2:43.67 | 189381 | 201672
15 | 44:48.73 | 3:52.23 | 201673 | 219095

Range status and errors

Selected range

Filename D:\Music\Оксана Муха - RE-SHETO\Оксана Муха - RE-SHETO.wav

Peak level 100.0 %
Extraction speed 3.9 X
Range quality 99.9 %
Copy CRC 052EFF7E
Copy OK

No errors occurred

End of status report
Audiochecker

fooCDtect - foobar2000 + auCDtect, baralgin.

auCDtect: CD records authenticity detector, version 0.8.2
Copyright (c) 2004 Oleg Berngardt. All rights reserved.
Copyright (c) 2004 Alexander Djourik. All rights reserved.

mode: 0

===========================================
Track: 01. Посіяла конопельки
Quality: CDDA 100%
===========================================
Track: 02. Йшли корови із діброви
Quality: CDDA 100%
===========================================
Track: 03. Хлопці, риболовці
Quality: CDDA 100%
===========================================
Track: 04. Стоїть дівча над бистрою водою
Quality: CDDA 100%
===========================================
Track: 05. Чи справді
Quality: CDDA 100%
===========================================
Track: 06. Ой, чорна я си чорна
Quality: CDDA 100%
===========================================
Track: 07. Та нема того Миколи
Quality: CDDA 100%
===========================================
Track: 08. Порізала м пальчик, та й болить
Quality: CDDA 100%
===========================================
Track: 09. На камені ноги мию
Quality: CDDA 100%
===========================================
Track: 10. Тече вода каламутна
Quality: CDDA 100%
===========================================
Track: 11. Ой, місяцю, місяченьку
Quality: CDDA 100%
===========================================
Track: 12. За річкою, за Дунаєм
Quality: CDDA 100%
===========================================
Track: 13. Два колечка
Quality: CDDA 100%
===========================================
Track: 14. Je se sais pas
Quality: CDDA 92%
===========================================
Track: 15. Дивная новина
Quality: CDDA 99%
===========================================
Додаткова інформація:
"Цей диск - це шлях, що мені поталанило пройти. На його дзеркалі - доріжки, стежки чи то плеса, заводі, де мені довелось побувати, працюючи над ним. У ньому пошук і відповідь на такі прості запитання:
Хто ти - пісне?
Чи мені тебе співати?
Це дебют, де я спробую себе у розмаїтих амплуа - від симфоджазу до солоспіву. Тому і назва йому Решето, ніби висіявши саме золото.
Пісня - істина, щастя є вчитись її."
Оксана Муха


Також на Толоці:
Цей альбом в MP3


Якщо Ви справді бажаєте підтримати українське - після прослуховування, якщо музика вам сподобалась, придбайте ліцензійний диск. Підтримаймо вітчизняних виконавців!


Срібний реліз (на рейтинг впливає 50% завантаженого)
 Трекер:    Зареєстрований   

Завантажити / скачати українську музику



відео для новачків



 Зареєстрований:   2013-06-13 20:21
 Розмір:   283 MB 
 Оцінка музики:   10/10 (Голосів: 14)
   
Ваш часовий пояс: GMT + 2 Години

Нова тема   Відповісти