Завантажити та скачати торренти українською


Оз: Великий та Могутній / Oz: The Great and Powerful (2013) AVC

Нові коментарі

Нова тема   Відповісти
Автор Повідомлення
FaB0SS 
Відео Гуртом - фільмокрай
Відео Гуртом - фільмокрай


З нами з: 04.08.08
Востаннє: 10.12.16
Повідомлень: 522

2013-06-13 14:21  
Оз: Великий та могутній / Oz: The Great and Powerful (2013) AVC


Жанр: пригодницький, сімейний, фентезі
Країна: США



Кінокомпанія: Walt Disney Pictures, Roth Films
Режисер: Сем Реймі
Актори: Джеймс Франко, Міла Куніс, Рейчел Вайс, Мішель Вільямс, Зак Брафф, Білл Коббс, Джої Кінґ, Тоні Кокс, Стівен Р. Гарт, Ебіґейл Спенсероббс

Сюжет:
Коли ураган закидає циркового фокусника Оскара Діґґса із запиленого Канзасу в чарівну країну Оз, схильний до шахрайства циркач вважає, що він зловив удачу за хвіст - адже за допомогою своїх трюків він з легкістю може добути в нових землях і славу, і багатство. Проте його чекає зустріч з трьома чародійками, Теодорою, Еванорою і Ґлінді, які сумніваються в тому, чи той це великий чарівник, появи якого чекали легковірні жителі країни Оз. У ситуації вибору між Добром і Злом, Оскару Діґґсу належить не тільки стати Великим і Жахливим Чарівником з Країни Оз, а й трохи змінитися на краще.


Тривалість: 02:10:30
Якість:
Відео:
кодек:
розмір кадру: 720х304
бітрейт: 831 кб/с
CRF: 20

Аудіо:
мова: українська
переклад: професійний дубльований
кодек: 5.1
бітрейт: 224 кб/с

Джерело озвучення:


Скріншоти

Про AVC by Konfucius
1. Яка різниця між і AVC?
AVC використовує набагато ефективніший спосіб стискання відео. Незалежні тести показують, що в середньому на 260% ефективніший за , це означає, що для досягнення однакової якості в AVC достатньо вдвічі меншого бітрейту, а отже і розміру файлу.

2. Чому такий малий розмір файлу?
Майже парадоксально, але тут очевидно краща якість зображення, якщо порівняти з класичним .

3. Чому ви раніше не робили AVC?
Можна сказати, що стискання відео за допомогою - це своєрідна традиція. Також він зберігає підтримку "залізних" програвачів DVD, які здатні відтворити DivX/, записані на диск. На мою думку, підтримка старих залізних програвачів більше не актуальна, і порівнюючи зі всіма перевагами - просто не варта цього.

4. Які ще переваги в цього релізу?
Крім вдвічі меншого розміру, кращої якості відео та однакової якості звуку, порівняно з традиційним це, наприклад, підтримка всіх сучасних пристроїв, як Xbox 360, PS3, iPhone 4+, iPad 2+, Android, Windows Phone, SmartTV
Для iOS раджу програвач VLC, для Android - MX Player та DicePlayer.

5. Як ви вирахували такий бітрейт, чому не зробили "стандартний" розмір?
Власне, я не вираховував бітрейт. Я використовував CRF (Constant Rate Factor) замість 2-pass, це означає, що сам вибрав потрібний бітрейт для досягнення вказаного рівня якості.

6. Хіба 2-pass не дає кращої якості, ніж CRF?
З погляду якості вони ідентичні. 2-pass використовується для досягнення точного бітрейту (а отже і розміру файлу), для цього і потрібний перший прохід, а CRF - для досягнення точного рівня якості, в такому випадку перший прохід не потрібний. Крім цього, у використанні CRF є одна суттєва перевага. Уявіть, що у вас є два фільми: один старий і зернистий (з низьким рівнем compressability), а інший - новий (з високим рівнем compressability), якщо ви для них обох вкажете однаковий бітрейт, якість в старого буде нижчою, але якщо ви вкажете однаковий CRF, якість в них буде однакова. Як би я не старався, але в мене були ріпи, де бітрейт виходив завищеним і, навпаки, заниженим. Перехід на CRF дає мені можливість створювати ріпи завжди об'єктивно однакової якості і не концентрувати увагу на розмірі файлу - якщо це потрібно для якості, він автоматично буде вищим, і навпаки.

FaB0SS, автор ріпу
Звіт MediaInfo
General
Unique ID : 174529239460520218025043353315555200991 (0x834D1BDD40F729CCBC1DE202F284CFDF)
Complete name : E:\Oz the Great and Powerful (2013) AVC [ukr] [hurtom] [-5.1].mkv
Format : Matroska
Format version : Version 2
File size : 1 000 MiB
Duration : 2h 10mn
Overall bit rate : 1 072 Kbps
Encoded date : UTC 2013-07-08 09:03:14
Writing application : mkvmerge v5.0.1 ('Es ist Sommer') built on Nov 6 2011 16:23:40
Writing library : libebml v1.2.2 + libmatroska v1.3.0

Video
ID : 1
Format : AVC
Format/Info : Advanced Video Codec
Format profile : [email protected]
Format settings, CABAC : Yes
Format settings, ReFrames : 5 frames
Codec ID : V_MPEG4/ISO/AVC
Duration : 2h 10mn
Width : 720 pixels
Height : 304 pixels
Display aspect ratio : 2.35:1
Frame rate : 23.976 fps
Color space : YUV
Chroma subsampling : 4:2:0
Bit depth : 8 bits
Scan type : Progressive
Writing library : core 119 r2106 07efeb4
Encoding settings : cabac=1 / ref=5 / deblock=1:0:0 / analyse=0x3:0x133 / me=umh / subme=10 / psy=1 / psy_rd=1.00:0.10 / mixed_ref=1 / me_range=16 / chroma_me=1 / trellis=2 / 8x8dct=1 / cqm=0 / deadzone=21,11 / fast_pskip=1 / chroma_qp_offset=-3 / threads=6 / sliced_threads=0 / nr=0 / decimate=1 / interlaced=0 / bluray_compat=0 / constrained_intra=0 / bframes=3 / b_pyramid=2 / b_adapt=2 / b_bias=0 / direct=3 / weightb=1 / open_gop=0 / weightp=2 / keyint=250 / keyint_min=23 / scenecut=40 / intra_refresh=0 / rc_lookahead=60 / rc=crf / mbtree=1 / crf=20.0 / qcomp=0.60 / qpmin=0 / qpmax=69 / qpstep=4 / ip_ratio=1.40 / aq=1:1.00
Language : English
Default : Yes
Forced : No

Audio
ID : 2
Format :
Format/Info : Advanced Audio Codec
Format profile : HE- / LC
Codec ID : 40
Duration : 2h 4mn
Bit rate mode : Variable
Bit rate : 221 Kbps
Maximum bit rate : 294 Kbps
Channel(s) : 6 channels
Channel positions : Front: L C R, Side: L R, LFE
Sampling rate : 48.0 KHz / 24.0 KHz
Compression mode : Lossy
Stream size : 197 MiB
Writing library : Nero codec 1.5.4.0
Language : Ukrainian
Default : Yes
Forced : No

Альтернативний опис Happy
Оззі: Величезний та Всемогутній / Oz: The Great and Powerful (2013) AVC


Жанр: пригодницький, сімейний, фентезі, кіно для дорослих
Країна: США



Кінокомпанія: Walt Disney Pictures, Roth Films
Режисер: Сем Реймі
Актори: Джеймс Франко, Мила Куніс, Рейчел Вайс, Мішель Вільямс, Зак Брафф, Білл Коббс, Джої Кінґ, Тоні Кокс, Стівен Р. Гарт, Ебіґейл Спенсероббс, Лось Бульвінкль, Прибулець Павло

Сюжет:
Коли ураган закидає циркового фокусника Оскара Діґґса із запиленого Канзасу в чарівну країну Оз, схильний до шахрайства циркач вважає, що він зловив удачу за хвіст - адже за допомогою своїх трюків він з легкістю може добути в нових землях і славу, і багатство. Проте його чекає зустріч з трьома чародійками, Теодорою, Еванорою, Глінді та відважним лосем на ім'я Бульвінкль, які сумніваються в тому, чи той це великий чарівник, появи якого чекали легковірні жителі країни Оз. Аж ось, несподівано, термальним потоком в країну Оз закидає знайомого всім прибульця. Волею-неволею, прибулець Павло виявляється втягнутим у протистояння епічного масштабу, і йому доводиться використовувати весь свій «космічний» арсенал, з додаванням дещиці справжнього безумства. Він не розуміє за кого йому вболівати. З одного боку Лось Бульвінкль це ж легенда, але й Оззі наче непоганий чувак. У ситуації вибору між Добром і Злом, Оскару Діґґсу належить не тільки стати Великим і Жахливим Чарівником з Країни Оз, а й трохи змінитися а краще. А потім маленьке звірятко загортає шоколад у фольгу.

Джерело:
Особиста оцінка: 8 - мені сподобалося


 Трекер:    Зареєстрований   

Завантажити / скачати фільм українською



відео для новачків



 Зареєстрований:   2013-07-08 11:17
 Розмір:   1000 MB 
 Оцінка фільму:   9.2/10 (Голосів: 26)
   
InKviZ 
VIP


З нами з: 03.10.10
Востаннє: 09.12.16
Повідомлень: 730

2013-06-13 15:44  
Хаха! Оце ти придумав- Оззі: Величезний
aalleexx85 
Відео Гуртом - фільмокрай
Відео Гуртом - фільмокрай


З нами з: 27.07.10
Востаннє: 10.12.16
Повідомлень: 1139

2013-06-13 15:56  
в ролі Оззі - Мила Куніс
The_Marlboro 
Відео Гуртом - субтитрування
Відео Гуртом - субтитрування


З нами з: 23.05.10
Востаннє: 10.12.16
Повідомлень: 2854

2013-06-13 16:12  
я про цей фільм подумав, вже й зрадів...
Rimbo 
VIP


З нами з: 30.04.11
Востаннє: 10.12.16
Повідомлень: 306

2013-06-13 16:49  
Цитата:
Оззі: Величезний та Могутній

А це що таке? О_О Оззі Осборн? Wide grin

bilenkuyboy 
Відео Гуртом - дизайнер
Відео Гуртом - дизайнер


З нами з: 17.06.08
Востаннє: 09.12.16
Повідомлень: 1582

2013-06-13 19:45  
Ех, я теж про Озборна подумав)
Severnyi 
VIP


З нами з: 10.02.09
Востаннє: 06.12.16
Повідомлень: 477

2013-06-13 20:44  
"Оззі" настільки убило, що ніхто не помітив, що він іще й "величезний" Happy
PhilosophUA 
VIP


З нами з: 13.02.10
Востаннє: 09.12.16
Повідомлень: 402

2013-06-14 22:38  
Тааа. Це типу авторський переклад назви??? Зараховую)))))))))

Додано через 35 секунд:

FaB0SS написано:
Актори: Джеймс Франко, Мила Куніс, Рейчел Вайс, Мішель Вільямс, Зак Брафф, Білл Коббс, Джої Кінґ, Тоні Кокс, Стівен Р. Гарт, Ебіґейл Спенсероббс, Лось Бульвінкль, Прибулець Павло

І він там є?

Додано через 1 хвилину 21 секунду:

FaB0SS написано:
Аж ось, несподівано, термальним потоком в країну Оз закидає знайомого всім прибульця. Волею-неволею, прибулець Павло виявляється втягнутим у протистояння епічного масштабу, і йому доводиться використовувати весь свій «космічний» арсенал, з додаванням дещиці справжнього безумства. Він не розуміє за кого йому вболівати. З одного боку Лось Бульвінкль це ж легенда, але й Оззі наче непоганий чувак. У ситуації вибору між Добром і Злом, Оскару Діґґсу належить не тільки стати Великим і Жахливим Чарівником з Країни Оз, а й трохи змінитися а краще. А потім маленьке звірятко загортає шоколад у фольгу.

От це політ фантазії :DDD
А ще таке поєднання вражає:
FaB0SS написано:
Жанр: пригодницький, сімейний, фентезі, кіно для дорослих

FaB0SS 
Відео Гуртом - фільмокрай
Відео Гуртом - фільмокрай


З нами з: 04.08.08
Востаннє: 10.12.16
Повідомлень: 522

2013-06-14 23:43  
PhilosophUA
Ти ба, а я вже почав думати, що ніхто повністю не читає сюжет Happy
PhilosophUA написано:
І він там є?

Ну звісно, зі своїм персональним єдинорогом.
PhilosophUA написано:
А ще таке поєднання вражає:

Та нічого дивного.
Наприклад, є така штука, як PG Porn - "порно для всієї родини".
Це типу пародія на порнофільми і їх тупий сюжет.
Усією родиною дивитись не раджу. Wide grin
До модерів:
Поки нехай анонс так повисить, ок?
Та якщо дуже треба, то все виправлю Wink (2)

сер147 
Свій


З нами з: 11.03.12
Востаннє: 09.12.16
Повідомлень: 57

2013-06-15 11:11  
АФФТАРР ЖЖОТ Wide grin
StAn16 
Свій


З нами з: 29.01.11
Востаннє: 10.12.16
Повідомлень: 98

2013-06-17 21:19  
Добило: А потім маленьке звірятко загортає шоколад у фольгу. хD
BOOGud 
VIP


З нами з: 06.03.12
Востаннє: 11.11.16
Повідомлень: 907

2013-06-17 22:20  
FaB0SS написано:
Сюжет:

я випав з цього сюжету)))
зберіг собі напам'ять у текстовому документі)

somnambula 
Відео Гуртом - дизайнер
Відео Гуртом - дизайнер


З нами з: 06.11.09
Востаннє: 10.12.16
Повідомлень: 760

2013-06-18 16:48  
FaB0SS написано:
А потім маленьке звірятко загортає шоколад у фольгу.


А потім Оззі відкушує цьому звіряткові голову)))

bot 
робот


З нами з: 30.09.07
Востаннє: 26.05.05
Повідомлень: 16044

2013-06-22 17:54  
Тему перенесено з Анонси релізів від Відео Гуртом до форуму Фільми


FaB0SS

Hentaihunter 
VIP


З нами з: 16.08.08
Востаннє: 10.12.16
Повідомлень: 2155

2013-06-22 18:15  
FaB0SS написано:
однакової якості звуку

Якщо ви вважаєте, що 96 кб/с однаковий з 192 кб/с, то це нахабна брехня.

FaB0SS 
Відео Гуртом - фільмокрай
Відео Гуртом - фільмокрай


З нами з: 04.08.08
Востаннє: 10.12.16
Повідомлень: 522

2013-06-22 20:29  
Панове, дуже вибачаюся, аудіо погано перекодувалось, дивитись можна, але є обрізані піки.
Оновив реліз.

Додано через 1 годину 30 секунд:

Пане Hentaihunter прошу більше в мою сторону не кидатись такими висловами.
Ідіть трольте в інше місце.
Ви ж навіть не знаєте з якими параметрами я кодував.
Звісно при кодуванні насиченого аудіотреку тривалістю 3-5 хв (стандартний музичний файл) АС3 192 виграє в ААС 96 (CBR). Все дуже залежить від наповнення файлу і методу кодування... Ви ще скажіть, що 895 кб/с гірше по якості ніж 1714 кб/с.
Я ж кодував в два проходи файл довжиною більше 2-хгодин!
Це дозволяє добре розподілити бітрейт і на проміжку файлу де він не потрібен - зменшити, а де більш потрібен, відповідно, збільшити. Можете (нижче) подивитись в медіаінфо, там добре видно що максимальний бітрейт 123кб/с.
Повне Медіаінфо
Audio
ID : 1
Format :
Format/Info : Advanced Audio Codec
Format profile : HE- / LC
Codec ID : 40
Duration : 2h 10mn
Bit rate mode : Variable
Bit rate : 96.0 Kbps
Maximum bit rate : 123 Kbps
Channel(s) : 2 channels
Channel positions : Front: L R
Sampling rate : 48.0 KHz / 24.0 KHz
Compression mode : Lossy
Stream size : 88.4 MiB (99%)
Writing library : Nero codec 1.5.4.0
Encoded date : UTC 2013-06-22 17:33:34
Tagged date : UTC 2013-06-22 17:36:34
Ось вам порівняння спектрів:
http://screenshotcomparison.com/comparison/29270
Звісно є відмінність, але вона незначна і на слух ви цього не почуєте.

Hentaihunter 
VIP


З нами з: 16.08.08
Востаннє: 10.12.16
Повідомлень: 2155

2013-06-22 22:43  
FaB0SS, тролінгом займаєтесь тут ви. По-перше, якщо бітрейт перемінний, це треба зазначати: VBR 96-123 кб/с, оскільки одна цифра нічого не каже про перемінність і не відповідає дійсності. По-друге, на ваших скріншотах обидві звукові доріжки мають розширення wav - про яке порівнняння аас і ас3 тут можна казати?
FaB0SS 
Відео Гуртом - фільмокрай
Відео Гуртом - фільмокрай


З нами з: 04.08.08
Востаннє: 10.12.16
Повідомлень: 522

2013-06-23 08:32  
Hentaihunter
Я ж Вас попросив, ідіть в інше місце.
Hentaihunter написано:
По-перше, якщо бітрейт перемінний, це треба зазначати: VBR 96-123 кб/с, оскільки одна цифра нічого не каже про перемінність і не відповідає дійсності.

Бачу ви не зовсім розумієте що й до чого Confused
Бітрейт аудіодоріжки перемінний, але кінцевий бітрейт (середній) - 96 кб/с, тому він ніяк не може бути VBR 96-123 кб/с. Медіаінфо просто не показує мінімальний бітрейт.
І з чого Ви взяли, що це треба зазначати? Далеко ходити не будемо, ось наприклад реліз Омікрону http://toloka.to/t47178
99.9% релізів, які кодуються з ААС мають змінний бітрейт, бо кодувати в ААС з постійним бітрейтом це, вибачте на слові, ідіотизм.
Hentaihunter написано:
По-друге, на ваших скріншотах обидві звукові доріжки мають розширення wav - про яке порівнняння аас і ас3 тут можна казати?

З цієї фрази відразу видно, що Ви абсолютно не тямите в питанні. Я спеціально для Вас розкодував аас та ас3 дороги в нестиснений WAV PCM і навів їх порівняння. Якщо б Ви розбиралися в питанні, то мали б знати, що будь-який аудіо формат при програванні абсолютно в любій програмі, спочатку розкодовується в WAV PCM, а потім в такому вигляді подається для програвання на звукову плату.
P.S.
Якщо ж у Вас є програма, яка може показати спектри і підтримує на вході аас та ас3, то будь-ласка наведіть Ваше порівняння спектрів і доведіть, що я не правий, інакше Ваші слова можна вважати за пусті балачки бабці на базарі.

bot 
робот


З нами з: 30.09.07
Востаннє: 26.05.05
Повідомлень: 16044

2013-07-07 21:29  
Тему перенесено з Фільми до форуму Анонси релізів від Відео Гуртом


FaB0SS

bot 
робот


З нами з: 30.09.07
Востаннє: 26.05.05
Повідомлень: 16044

2013-07-08 11:17  
Тему перенесено з Анонси релізів від Відео Гуртом до форуму Фільми


FaB0SS

FaB0SS 
Відео Гуртом - фільмокрай
Відео Гуртом - фільмокрай


З нами з: 04.08.08
Востаннє: 10.12.16
Повідомлень: 522

2013-07-08 13:01  
Торрент було оновлено!
Звук з i-tunes замінив на доріжку 5.1 з Blu-ray

eXteSy- 
VIP


З нами з: 06.04.09
Востаннє: 10.12.16
Повідомлень: 1456

2016-04-19 19:31  
Панове!
Не бажаєте роздати?

kino.girl 
Частий відвідувач


З нами з: 06.11.15
Востаннє: 30.11.16
Повідомлень: 25

2016-04-24 00:32  
гіршого фільму не бачила.
треба пити бухло, щоб зрозуміти те, про що говорять актори. і для кого.

не витрачайте свій час і душевні сии. не качайте!

eXteSy- 
VIP


З нами з: 06.04.09
Востаннє: 10.12.16
Повідомлень: 1456

2016-05-01 21:46  
Перед переглядом думав, що буде більше спільного з оригінальним твором Лімана Френка Баума. Хоча інтерпретація оригінальна і цікава, але дуже не вистачало персонажів, з якими перш за все асоціюється цей фільм: Залізного Дроворуба, Опудала...
Тому мені зрозуміле розчарування тих, хто замість улюбленої історії побачив...щось. Саме так: щось зовсім інше.
В результаті, як екранізація - напрочуд невдало.
Як окремий твір - чудова і добра казка.
Ще в багатьох місцях зовсім не сподобалася комп’ютерна графіка. причому це стосується не персонажів, які створені акуратно, а навколишнього світу. Іноді дуже вже кострубато.
7/10

Ваш часовий пояс: GMT + 2 Години

Нова тема   Відповісти