Завантажити та скачати торренти українською


Нова Людина-Павук / The Amazing Spider-Man (2012) 1080p Ukr/Eng | Sub Eng |4K Remastered

Нові коментарі

Нова тема   Відповісти
Автор Повідомлення
Anonymous 







2013-06-12 18:17  
Нова Людина-Павук / The Amazing Spider-Man (2012) 1080p Ukr/Eng | Sub Eng |4K Remastered



«Новий герой, нова історія, нове кохання»
Альтернативний український постер


Жанр: фантастика, бойовик, пригодницький
Країна: США



Кінокомпанія: Columbia Pictures, Marvel Enterprises, Laura Ziskin Productions
Режисер: Марк Вебб / Marc Webb
Актори: Ендрю Ґарфілд / Andrew Garfield, Емма Стоун / Emma Stone, Ріс Айфенс / Rhys Ifans, Деніс Лірі / Denis Leary, Мартін Шин / Martin Sheen, Саллі Філд / Sally Field, Ембет Девідц / Embeth Davidtz, Кембелл Скотт / Campbell Scott, Ірфан Кхан / Irfan Khan, Кріс Зілка / Chris Zylka, С. Томас Хауелл / C. Thomas Howell та інші

рейтинг MPAA: PG-13 - дітям до 13 років перегляд не бажаний
Вікова категорія: 12+

Сюжет:
У дитинстві Пітер Паркер був покинутий своїми батьками, і тому виховувався дядьком і тіткою. Йшли роки, Пітер був звичайним зразковим школярем, піддавався нападкам хуліганів і був закоханий у свою однокласницю Гвен Стейсі, яка сама потай відповідала йому взаємністю. Але після укусу генетично зміненого павука, Пітер отримує неймовірні надздібності і його життя змінюється назавжди.

Однак його не перестає турбувати питання про те, що сталося з його батьками. Він знайомиться з давнім другом і партнером свого батька - генетиком Куртом Коннорсом, який разом з батьком Пітера розробляв формулу регенерації. Пітер допомагає її закінчити, а Коннорс, усе життя мріяв відновити свою праву руку, вводить формулу собі і стає ящіром. Усвідомлюючи свою провину, Пітер починає нове життя в образі таємничого супергероя Людини-павука і стає грозою злочинців, одночасно намагаючись знайти спосіб зупинити Коннорса.


Тривалість: 02:16:17
Якість: 1080p
Джерело: Blu-ray, Mastered In 4K
Відео:
кодек:
розмір кадру: 1920x804
бітрейт: 8248 кб/с

Аудіо # 1:
мова: українська LeDoyen Studio на замовлення B&H Film Distribution
переклад: професійний дубльований
Переклад: Олександра Шабельника
Режисер дубляжу: Ольга Фокіна
Звукорежисер: Марія Нестеренко
Координатор проекту: Аліна Гаєвська
Ролі дублювали: Андрій Соболєв (Ендрю Ґарфілд/Пітер Паркер), Юлія Перенчук (Емма Стоун/Ґвен Стейсі), В’ячеслав Гіндін (Ріс Іванс), Олена Бліннікова (Саллі Філд/Тітка Мей), Анатолій Пашнін (Мартін Шин/Дядько Бен), Володимир Терещук (Деніс Лірі/Капітан Стейсі), Андрій Альохін, Кирило Андрєєв, Людмила Ардельян, Андрій Мостренко?, Роман Чупіс, Михайло Кришталь та інші.
кодек: 5.1
бітрейт: 640 кб/с

Аудіо # 2:
мова: англійська
переклад: оригінал
кодек: 5.1
бітрейт: 384 кб/с

Субтитри:
мова: англійська
тип: програмні (м'які)
формат: *.srt

Збережено оригінальні розділи, як на Blu-ray.
MediaInfo та
[info]: frame I:1767 Avg QP:11.89 size:217383
[info]: frame P:52208 Avg QP:13.92 size: 84134
[info]: frame B:142081 Avg QP:16.13 size: 25720
=================================================================
General
Unique ID : 194357673856834910060822126576542602544 (0x9237ED2890CE4614B637ACEF156AD530)
Complete name : The.Amazing.Spider.Man.2012..1080p.Ukr.Eng.mkv
Format : Matroska
Format version : Version 4 / Version 2
File size : 8.83 GiB
Duration : 2h 16mn
Overall bit rate : 9 275 Kbps
Movie name : Нова Людина-Павук / The Amazing Spider-Man / Новый Человек-паук (2012)
Encoded date : UTC 2013-06-12 14:33:12
Writing application : mkvmerge v6.2.0 ('Promised Land') built on Apr 28 2013 12:22:01
Writing library : libebml v1.3.0 + libmatroska v1.4.0

Video
ID : 1
Format : AVC
Format/Info : Advanced Video Codec
Format profile : [email protected]
Format settings, CABAC : Yes
Format settings, ReFrames : 5 frames
Codec ID : V_MPEG4/ISO/AVC
Duration : 2h 16mn
Bit rate : 8 248 Kbps
Width : 1 920 pixels
Height : 804 pixels
Display aspect ratio : 2.40:1
Frame rate mode : Constant
Frame rate : 23.976 fps
Color space : YUV
Chroma subsampling : 4:2:0
Bit depth : 8 bits
Scan type : Progressive
Bits/(Pixel*Frame) : 0.223
Stream size : 7.68 GiB (87%)
Title : Нова Людина-Павук / The Amazing Spider-Man / Новый Человек-паук (2012) 4K Remastered [Freeisland-delia]
Writing library : core 133 r2334kMod a3ac64b
Encoding settings : cabac=1 / ref=5 / deblock=1:-3:-3 / analyse=0x3:0x113 / me=umh / subme=10 / psy=1 / fade_compensate=0.00 / psy_rd=1.00:0.15 / mixed_ref=1 / me_range=48 / chroma_me=1 / trellis=2 / 8x8dct=1 / cqm=0 / deadzone=21,11 / fast_pskip=0 / chroma_qp_offset=-3 / threads=6 / lookahead_threads=1 / sliced_threads=0 / nr=0 / decimate=1 / interlaced=0 / bluray_compat=0 / constrained_intra=0 / bframes=9 / b_pyramid=2 / b_adapt=2 / b_bias=0 / direct=3 / weightb=1 / open_gop=0 / weightp=2 / keyint=250 / keyint_min=23 / scenecut=40 / intra_refresh=0 / rc_lookahead=40 / rc=2pass / mbtree=0 / bitrate=8248 / ratetol=1.0 / qcomp=0.75 / qpmin=0 / qpmax=69 / qpstep=4 / cplxblur=20.0 / qblur=0.5 / vbv_maxrate=50000 / vbv_bufsize=62500 / nal_hrd=none / ip_ratio=1.40 / pb_ratio=1.30 / aq=1:0.80
Language : English
Default : Yes
Forced : No
Color primaries : BT.709
Transfer characteristics : BT.709
Matrix coefficients : BT.709

Audio #1
ID : 2
Format : AC-3
Format/Info : Audio Coding 3
Mode extension : CM (complete main)
Format settings, Endianness : Big
Codec ID : A_AC3
Duration : 2h 16mn
Bit rate mode : Constant
Bit rate : 640 Kbps
Channel(s) : 6 channels
Channel positions : Front: L C R, Side: L R, LFE
Sampling rate : 48.0 KHz
Bit depth : 16 bits
Compression mode : Lossy
Stream size : 624 MiB (7%)
Title : Dub [LeDoyen Studio, Blu-ray CEE] 5.1 640 Kbps
Language : Ukrainian
Default : Yes
Forced : No

Audio #2
ID : 3
Format : AC-3
Format/Info : Audio Coding 3
Mode extension : CM (complete main)
Format settings, Endianness : Big
Codec ID : A_AC3
Duration : 2h 16mn
Bit rate mode : Constant
Bit rate : 384 Kbps
Channel(s) : 6 channels
Channel positions : Front: L C R, Side: L R, LFE
Sampling rate : 48.0 KHz
Bit depth : 16 bits
Compression mode : Lossy
Stream size : 374 MiB (4%)
Title : Original
Language : English
Default : No
Forced : No

Text
ID : 4
Format : UTF-8
Codec ID : S_TEXT/UTF8
Codec ID/Info : UTF-8 Plain Text
Title : Eng full
Language : English
Default : No
Forced : No

Menu
00:00:00.000 : en:00:00:00.000
00:07:45.923 : en:00:07:45.923
00:14:39.670 : en:00:14:39.670
00:22:57.542 : en:00:22:57.542
00:32:58.226 : en:00:32:58.226
00:41:25.065 : en:00:41:25.065
00:48:42.502 : en:00:48:42.502
00:55:10.932 : en:00:55:10.932
01:03:17.293 : en:01:03:17.293
01:12:29.011 : en:01:12:29.011
01:17:51.750 : en:01:17:51.750
01:24:38.948 : en:01:24:38.948
01:34:04.555 : en:01:34:04.555
01:42:59.548 : en:01:42:59.548
01:52:16.354 : en:01:52:16.354
02:00:52.912 : en:02:00:52.912


Джерела та подяки: ріп відео, оригінальні звук та субтитри - delia (Freeisland); українська доріжка - Ton-ik (рутрекер).

ЗАЛИШАЙТЕСЬ ЯКОМОГА ДОВШЕ НА РОЗДАЧІ!

СКАЧАВ САМ - ДАЙ СКАЧАТИ ІНШИМ


 Трекер:    Зареєстрований   

Завантажити / скачати фільм українською



відео для новачків



 Зареєстрований:   2013-06-12 18:17
 Розмір:   8.83 GB 
 Оцінка фільму:   6.6/10 (Голосів: 32)
   
Mac_Taylor 
Забанено
Забанено


З нами з: 31.07.12
Востаннє: 14.03.15
Повідомлень: 431

2013-06-12 18:32  
Людина-Павук, Чебурашки Ніндзя... Ну у них реально фантазії не вистачає
Ваш часовий пояс: GMT + 2 Години

Нова тема   Відповісти