Завантажити та скачати торренти українською


VA - Твоя пісня завжди поміж нас [присвята Володимиру Івасюку] (2010) [APE] | Pop

Нові коментарі

Нова тема   Відповісти
Автор Повідомлення
civ 
VIP


З нами з: 16.02.11
Востаннє: 02.12.16
Повідомлень: 428

2013-06-11 21:30  
VA - Твоя пісня завжди поміж нас [присвята Володимиру Івасюку] (2010) [APE] | Pop

VA - Твоя пісня завжди поміж нас [присвята Володимиру Івасюку] (2010) [APE] | Pop


Стиль: Pop
Країна, місто: Україна
Видавець: Grolis
Пісні:
    01. Павло Мрежук - Твоя пісня завжди поміж нас
    02. Володимир Вермінський - Червона рута
    03. Віктор Павлік - Водограй
    04. Світозари - Там за горою, за крем’яною
    05. Володимир Гуменчук, Наталія Мельник - Не треба осені
    06. Б.Мельничук (Байда) - Кленовий вогонь
    07. Володимир Вермінський - Жовтий лист
    08. Ярина Шуст - Тільки раз цвіте любов
    09. П.Буряк - Червона рута
    10. А.Ромасюков - Зорі
    11. Володимир Гуменчук, Наталія Мельник - Кленовий вогонь
    12. Віктор Павлік - Пісня про тебе
    13. Ігор Яснюк - Стоїть пшениця як Дунай
    14. Рената Довгаліс - Світ без тебе
    15. Квартет «Акорд» - Пісня буде поміж нас

Тривалість: 00:59:52
Мова: українська
Аудіо-кодек: APE
Бітрейт: 910 кб/с
Джерело: компакт-диск
Тип ріпу: image + cue + обкладинки
EAC Log

Exact Audio Copy V1.0 beta 3 from 29. August 2011

EAC extraction logfile from 24. January 2013, 20:13

Various / Твоя пісня завжди поміж нас

Used drive : MATSHITADVD-RAM UJ8C1 Adapter: 1 ID: 0

Read mode : Secure
Utilize accurate stream : Yes
Defeat audio cache : Yes
Make use of C2 pointers : No

Read offset correction : 6
Overread into Lead-In and Lead-Out : No
Fill up missing offset samples with silence : Yes
Delete leading and trailing silent blocks : No
Null samples used in CRC calculations : Yes
Used interface : Native Win32 interface for Win NT & 2000

Used output format : Internal WAV Routines
Sample format : 44.100 Hz; 16 Bit; Stereo

TOC of the extracted CD

Track | Start | Length | Start sector | End sector
---------------------------------------------------------
1 | 0:00.00 | 4:27.30 | 0 | 20054
2 | 4:27.30 | 4:09.37 | 20055 | 38766
3 | 8:36.67 | 3:37.48 | 38767 | 55089
4 | 12:14.40 | 3:46.23 | 55090 | 72062
5 | 16:00.63 | 3:19.51 | 72063 | 87038
6 | 19:20.39 | 3:39.53 | 87039 | 103516
7 | 23:00.17 | 5:07.55 | 103517 | 126596
8 | 28:07.72 | 3:18.56 | 126597 | 141502
9 | 31:26.53 | 3:58.72 | 141503 | 159424
10 | 35:25.50 | 4:38.66 | 159425 | 180340
11 | 40:04.41 | 3:03.56 | 180341 | 194121
12 | 43:08.22 | 3:51.35 | 194122 | 211481
13 | 46:59.57 | 4:36.50 | 211482 | 232231
14 | 51:36.32 | 3:59.43 | 232232 | 250199
15 | 55:36.00 | 4:16.00 | 250200 | 269399

Range status and errors

Selected range

Filename C:\Music\Various - Твоя пісня завжди поміж нас (2010)\Various - Твоя пісня завжди поміж нас.wav

Peak level 100.0 %
Extraction speed 4.9 X
Range quality 100.0 %
Copy CRC B276FA6E
Copy OK

No errors occurred

End of status report
Audiochecker

fooCDtect - foobar2000 + auCDtect, baralgin.

auCDtect: CD records authenticity detector, version 0.8.2
Copyright (c) 2004 Oleg Berngardt. All rights reserved.
Copyright (c) 2004 Alexander Djourik. All rights reserved.

mode: 0

===========================================
Track: 01. Твоя пісня завжди поміж нас
Quality: CDDA 100%
===========================================
Track: 02. Червона рута
Quality: CDDA 100%
===========================================
Track: 03. Водограй
Quality: CDDA 99%
===========================================
Track: 04. Там за горою, за крем’яною
Quality: CDDA 100%
===========================================
Track: 05. Не треба осені
Quality: CDDA 100%
===========================================
Track: 06. Кленовий вогонь
Quality: MPEG 95%
===========================================
Track: 07. Жовтий лист
Quality: CDDA 76%
===========================================
Track: 08. Тільки раз цвіте любов
Quality: CDDA 100%
===========================================
Track: 09. Червона рута
Quality: CDDA 100%
===========================================
Track: 10. Зорі
Quality: CDDA 99%
===========================================
Track: 11. Кленовий вогонь
Quality: CDDA 100%
===========================================
Track: 12. Пісня про тебе
Quality: CDDA 100%
===========================================
Track: 13. Стоїть пшениця як Дунай
Quality: CDDA 100%
===========================================
Track: 14. Світ без тебе
Quality: MPEG 95%
===========================================
Track: 15. Пісня буде поміж нас
Quality: CDDA 100%
===========================================
Додаткова інформація:
Чесно кажучи, так собі... Не краще за всі попередні збірки. Хоча, кілька потрібних мені пісень я тут знайшов.


Якщо Ви справді бажаєте підтримати українське - після прослуховування, якщо музика вам сподобалась, придбайте ліцензійний диск. Підтримаймо вітчизняних виконавців!


Срібний реліз (на рейтинг впливає 50% завантаженого)
 Трекер:    Зареєстрований   

Завантажити / скачати українську музику



відео для новачків



 Зареєстрований:   2013-06-11 21:30
 Розмір:   398 MB 
 Оцінка музики:   9.6/10 (Голосів: 7)
   
gorislavets 
VIP


З нами з: 29.03.11
Востаннє: 28.11.16
Повідомлень: 372

2015-11-18 03:22  
10. А.Ромасюков - Зорі, так само як і перший трек - це не Івасюка пісні, а присвяти цьому геніальному композитору.
Ваш часовий пояс: GMT + 2 Години

Нова тема   Відповісти