Завантажити та скачати торренти українською


Lama - Тримай. Нове та найкраще (2010) [FLAC] | Pop Rock

Нові коментарі

Нова тема   Відповісти
Останній раз роздавалося Artbis (2016-12-03)
Автор Повідомлення
Anonymous 







2013-06-09 15:03  
Lama - Тримай. Нове та найкраще (2010) [FLAC] | Pop Rock

Lama - Тримай. Нове та найкраще (2010) [FLAC] | Pop Rock

Стиль: Pop Rock
Країна, місто: Україна, Київ
Сайти: Офіційний сайт
Видавець: Artur Music
Виконавці:
Наталія Дзенькiв – соліст, автор лірики
Костя – гітара
Zurik – бас-гітара
Zi-Zi – барабани
Жека – клавішні
Пісні:
    1. Тримай
    2. Моє серце
    3. Літак
    4. Знаєш, як болить
    5. Мені так треба
    6. З тим (Кого любила)
    7. Обман
    8. Тіло тремтить
    9. Між зорями
    10. Сон
    11. Білі вогні
    12. З джерела
    13. Світло і тінь
    14. Жовте поле

Тривалість: 00:52:28
Мова: українська
Аудіо-кодек: FLAC
Бітрейт: 1011 кб/с
Джерело: Інтернет
Додаткова інформація:
Вона вітається з усіма за руку, дуже тихо говорить, і на відміну від однойменної тварини не здіймає високо голови. Лама, пісні котрої можна почути будь-де виявляється дуже позитивною дівчиною на ім’я Наталя.
Пробиватися Ламі допомагає її земляк та один з найкращих звукорежисерів країни – Віталій Телезін. На початку 90-х тоді ще Наталя Дзенків співала у гурті «Магія». «Ми тоді були дуже популярні, - розповідає Лама. – Просто творчим людям, якими є ми з Віталіком, важко займатися бізнесом. Ми не знали, в якому напрямку рухатися, до кого звертатися. Часи змінилися, і зараз ми розуміємо, що треба робити, щоби отримати цю підтримку».
З самого дитинства Лама грає на фортепіано та гарно танцює, але бути піаністкою вона бути не захотіла після поїздки до Німеччини. Там вона побачила Томаса Андерса з Modern Talking та Bon Jovi, і зрозуміла, що хоче співати.
Вдруге до Берліна вона поїхала вже для того, щоб відзняти дебютне відео до пісні «Мені так треба».
«Назва асоціюється не стільки з твариною, скільки з індійською культурою, якою я цікавилась», - розповідає співачка.
Біля огорожі з однойменною твариною Наталя провела не одну годину. З тварин Лама-співачка любить собак та кішок.
«Мені здається, що я занадто віддана мистецтву. Є в мене ще така риса – відкритість. Деякі люди вважають, що в нашій країні це може бути використано проти тебе. Поки що зла не відчуваю, але я ще дуже небагато бачила».
Розмовляє Лама виключно українською мовою, і єдиний мовний компроміс для неї – англійська. Продюсери стосовно співачки будують грандіозні плани – впевнені, що продукт матиме успіх в Європі.
log

Exact Audio Copy V0.99 prebeta 5 from 4. May 2009

Отчёт EAC об извлечении, выполненном 22. октября 2010, 20:09

Lama / Тримай - Нове та найкраще

Дисковод: HL-DT-STDVDRAM GH22NS50 Adapter: 2 ID: 0

Режим чтения : Достоверность
Использование точного потока : Да
Отключение кэша аудио : Да
Использование указателей C2 : Нет

Коррекция смещения при чтении : 667
Способность читать области Lead-in и Lead-out : Нет
Заполнение пропущенных сэмплов тишиной : Да
Удаление блоков с тишиной в начале и конце : Нет
При вычислениях CRC использовались нулевые сэмплы : Да
Интерфейс : Встроенный Win32-интерфейс для Win NT/2000

Выходной формат : Внутренние WAV-операции
Формат сэмплов : 44.100 Гц; 16 бит; стерео

TOC извлечённого CD

Трек | Старт | Длительность | Начальный сектор | Конечный сектор
---------------------------------------------------------------------
1 | 0:00.00 | 4:06.32 | 0 | 18481
2 | 4:06.32 | 3:43.17 | 18482 | 35223
3 | 7:49.49 | 3:32.44 | 35224 | 51167
4 | 11:22.18 | 3:32.05 | 51168 | 67072
5 | 14:54.23 | 3:31.73 | 67073 | 82970
6 | 18:26.21 | 4:08.34 | 82971 | 101604
7 | 22:34.55 | 4:07.70 | 101605 | 120199
8 | 26:42.50 | 4:05.63 | 120200 | 138637
9 | 30:48.38 | 4:09.18 | 138638 | 157330
10 | 34:57.56 | 3:25.33 | 157331 | 172738
11 | 38:23.14 | 4:42.30 | 172739 | 193918
12 | 43:05.44 | 3:38.07 | 193919 | 210275
13 | 46:43.51 | 3:53.56 | 210276 | 227806
14 | 50:37.32 | 3:38.45 | 227807 | 244201
15 | 56:48.02 | 21:38.73 | 255602 | 353024

Характеристики диапазона извлечения и сообщения об ошибках

Выбранный диапазон

Имя файла C:\Lama - Тримай - Нове та найкраще.wav

Пиковый уровень 100.0 %
Качество диапазона 100.0 %
CRC теста CEF77EF7
CRC копии CEF77EF7
Копирование... OK

Ошибок не произошло

AccurateRip: сводка

Трек 1 нет в базе данных
Трек 2 нет в базе данных
Трек 3 нет в базе данных
Трек 4 нет в базе данных
Трек 5 нет в базе данных
Трек 6 нет в базе данных
Трек 7 нет в базе данных
Трек 8 нет в базе данных
Трек 9 нет в базе данных
Трек 10 нет в базе данных
Трек 11 нет в базе данных
Трек 12 нет в базе данных
Трек 13 нет в базе данных
Трек 14 нет в базе данных

Ни одного трека нет в базе AccurateRip

Конец отчёта
Якщо Ви справді бажаєте підтримати українське - після прослуховування, якщо музика вам сподобалась, придбайте ліцензійний диск. Підтримаймо вітчизняних виконавців!


Срібний реліз (на рейтинг впливає 50% завантаженого)
 Трекер:    Зареєстрований   

Завантажити / скачати українську музику



відео для новачків



 Зареєстрований:   2013-06-09 15:03
 Розмір:   393 MB 
 Оцінка музики:   9.9/10 (Голосів: 15)
   
ponty 
Свій


З нами з: 23.10.08
Востаннє: 03.12.16
Повідомлень: 95

2013-06-10 09:36  
найкраще бачу,от нове щось ні
88mmc88 
Свій


З нами з: 21.12.09
Востаннє: 02.12.16
Повідомлень: 62

2013-06-10 10:09  
Вельми давно не було чогось нового, сумно..........
Ваш часовий пояс: GMT + 2 Години

Нова тема   Відповісти