Завантажити та скачати торренти українською


НеДіля - Дискографія (3 альбоми) (2004-2010) [APE] | Pop Rock

Нові коментарі

Нова тема   Відповісти
Автор Повідомлення
Anonymous 







2013-06-08 13:17  
НеДіля - Дискографія (3 альбоми) (2004-2010) [APE] | Pop Rock

НеДіля - Дискографія (3 альбоми) (2004-2010) [APE] | Pop Rock


Стиль: Pop Rock
Країна, місто: Україна, Київ
Сайти: Офіційний сайт
Видавець: Moon Records
Виконавці:
Едуард (Діля) Приступа (вокал)
Євдокім Решетько (гітара, бек-вокал, інструментовки)
Михайло Баньковський (соло-гітара)
Антон Бєлко (бас гітара)
Ярослав Вільчик (ударні)
Альбоми:
2004 - НеДіля (Ukraine Moon Records MR 785-2)

НеДіля - Дискографія (3 альбоми) (2004-2010) [APE] | Pop Rock

Пісні:
    01. Один день - малюнок [0:04:37.71]
    02. Безмежний світ [0:03:56.51]
    03. Знову сама [0:03:26.31]
    04. Минула ніч [0:04:00.01]
    05. Тільки дощ [0:03:52.12]
    06. Вий, мій ранок... [НеДіля & Росава] [0:03:26.15]
    07. За небом [0:05:46.74]
    08. Допоможи... [0:03:29.08]
    09. Я тебе кохаю [0:07:43.20]
    10. Трататата [0:03:29.13]
    11. Знову сама вільнивід мови .Sunny RMX [0:04:15.36]
    12. My Angel [0:03:56.53]
    13. I Will Fly [НеДіля feat. Росава] [0:03:12.58]
    14. Знову сама Sergey Druz mix [0:07:37.19]
    15. Тільки дощ Jee mix [0:04:10.74]
    16. I Will Fly Dans Remix by Tim [0:04:36.70]
    17. Тільки дощ (video) [0:04:26.04]
    Log

Тривалість: 00:33:41
Мова:українська (1-11,14,15), англійська (12,13,16)
Аудіо-кодек: FLAC
Бітрейт: 909 кб/с
Бонус відео

Тільки дощ

Video: MPEG1 Video 352x288 (4:3) 25.00fps 1150Kbps
Audio: MPEG Audio 44100Hz stereo 224Kbps
Скріншоти





Log

Exact Audio Copy V0.99 prebeta 4 from 23. January 2008

Отчёт EAC об извлечении, выполненном 2. мая 2010, 11:57

НеДіля / НеДіля

Дисковод: Optiarc DVD RW AD-5170A Adapter: 0 ID: 0

Режим чтения : Достоверность
Использование точного потока : Да
Отключение кэша аудио : Да
Использование указателей C2 : Нет

Коррекция смещения при чтении : 48
Способность читать области Lead-in и Lead-out : Нет
Заполнение пропущенных сэмплов тишиной : Да
Удаление блоков с тишиной в начале и конце : Нет
При вычислениях CRC использовались нулевые сэмплы : Да
Интерфейс : Установленный внешний ASPI-интерфейс

Выходной формат : Внутренние WAV-операции
Формат сэмплов : 44.100 Гц; 16 бит; стерео

TOC извлечённого CD

Трек | Старт | Длительность | Начальный сектор | Конечный сектор
---------------------------------------------------------------------
1 | 0:00.00 | 4:37.71 | 0 | 20845
2 | 4:37.71 | 3:56.51 | 20846 | 38596
3 | 8:34.47 | 3:26.31 | 38597 | 54077
4 | 12:01.03 | 4:00.01 | 54078 | 72078
5 | 16:01.04 | 3:52.12 | 72079 | 89490
6 | 19:53.16 | 3:26.15 | 89491 | 104955
7 | 23:19.31 | 5:46.74 | 104956 | 130979
8 | 29:06.30 | 3:29.08 | 130980 | 146662
9 | 32:35.38 | 7:43.20 | 146663 | 181407
10 | 40:18.58 | 3:29.13 | 181408 | 197095
11 | 43:47.71 | 4:15.36 | 197096 | 216256
12 | 48:03.32 | 3:56.53 | 216257 | 234009
13 | 52:00.10 | 3:12.58 | 234010 | 248467
14 | 55:12.68 | 7:37.19 | 248468 | 282761
15 | 62:50.12 | 4:10.74 | 282762 | 301585
16 | 67:01.11 | 4:36.70 | 301586 | 322355
17 | 74:10.06 | 4:26.04 | 333756 | 353709

Характеристики диапазона извлечения и сообщения об ошибках

Выбранный диапазон

Имя файла G:\Lossless\НеДіля - НеДіля.wav

Пиковый уровень 100.0 %
Качество диапазона 99.9 %
CRC копии 786CA2AA
Копирование... OK

Ошибок не произошло

Конец отчёта
2006 - Трохи теплих слів (Ukraine Moon Records MR 1636-2)

НеДіля - Дискографія (3 альбоми) (2004-2010) [APE] | Pop Rock

Пісні:
    01. Намалюй [0:05:50.64]
    02. Лети [0:03:42.62]
    03. Трохи теплих слів [0:03:30.30]
    04. Водночас [0:03:55.45]
    05. Казка для дорослих [0:03:59.56]
    06. Знаєш, ти одна... [0:04:53.00]
    07. Мері [0:04:03.21]
    08. Поринаємо у мрії [0:04:13.37]
    09. Завтра буде завтра... [0:03:37.08]
    10. Молитва до Землі - Цей світ [0:05:24.74]
    11. Безмежний світ [НеДіля feat. Схід Side. Live in 44] [0:03:54.43]
    12. Чуєш... [0:03:54.15]
    13. Новорічна [0:03:45.25]
    14. Своє кіно... [НеДіля feat. Fozzey] [0:04:34.70]

Тривалість: 00:42:10
Мова:: українська
Аудіо-кодек: FLAC
Бітрейт: 913 кб/с
Log

Exact Audio Copy V0.99 prebeta 4 from 23. January 2008

Отчёт EAC об извлечении, выполненном 3. мая 2010, 15:11

НеДіля / Трохи теплих слів

Дисковод: Optiarc DVD RW AD-5170A Adapter: 0 ID: 0

Режим чтения : Достоверность
Использование точного потока : Да
Отключение кэша аудио : Да
Использование указателей C2 : Нет

Коррекция смещения при чтении : 48
Способность читать области Lead-in и Lead-out : Нет
Заполнение пропущенных сэмплов тишиной : Да
Удаление блоков с тишиной в начале и конце : Нет
При вычислениях CRC использовались нулевые сэмплы : Да
Интерфейс : Установленный внешний ASPI-интерфейс

Выходной формат : Внутренние WAV-операции
Формат сэмплов : 44.100 Гц; 16 бит; стерео

TOC извлечённого CD

Трек | Старт | Длительность | Начальный сектор | Конечный сектор
---------------------------------------------------------------------
1 | 0:00.00 | 5:50.64 | 0 | 26313
2 | 5:50.64 | 3:42.62 | 26314 | 43025
3 | 9:33.51 | 3:30.30 | 43026 | 58805
4 | 13:04.06 | 3:55.45 | 58806 | 76475
5 | 16:59.51 | 3:59.56 | 76476 | 94456
6 | 20:59.32 | 4:53.00 | 94457 | 116431
7 | 25:52.32 | 4:03.21 | 116432 | 134677
8 | 29:55.53 | 4:13.37 | 134678 | 153689
9 | 34:09.15 | 3:37.08 | 153690 | 169972
10 | 37:46.23 | 5:24.74 | 169973 | 194346
11 | 43:11.22 | 3:54.43 | 194347 | 211939
12 | 47:05.65 | 3:54.15 | 211940 | 229504
13 | 51:00.05 | 3:45.25 | 229505 | 246404
14 | 54:45.30 | 4:34.70 | 246405 | 267024
15 | 61:52.25 | 2:23.13 | 278425 | 289162

Характеристики диапазона извлечения и сообщения об ошибках

Выбранный диапазон

Имя файла G:\Lossless\НеДіля - Трохи теплих слів.wav

Пиковый уровень 100.0 %
Качество диапазона 100.0 %
CRC копии 92724E27
Копирование... OK

Ошибок не произошло

Конец отчёта
2010 - Fortissimo (Ukraine Moon Records MR 4719-2)

НеДіля - Дискографія (3 альбоми) (2004-2010) [APE] | Pop Rock

Пісні:
    01. Просто неба
    02. Гра
    03. Синя Ріка
    04. Рейк’явік
    05. Если Бы Я Был
    06. Формула Кохання Графа Каліостро
    07. Розгубив
    08. Чоловік І Жінка
    09. Бізне$$$ Леді
    10. Небокрай
    11. Туса
    12. Сент Екзюпері


Тривалість: 00:45:27
Мова:українська, російська (5)
Аудіо-кодек: FLAC
Бітрейт: 980 кб/с
Log

Exact Audio Copy V0.99 prebeta 4 from 23. January 2008

Отчёт EAC об извлечении, выполненном 6. мая 2010, 14:32

НеДіля / Fortissimo

Дисковод: Optiarc DVD RW AD-5170A Adapter: 0 ID: 0

Режим чтения : Достоверность
Использование точного потока : Да
Отключение кэша аудио : Да
Использование указателей C2 : Нет

Коррекция смещения при чтении : 48
Способность читать области Lead-in и Lead-out : Нет
Заполнение пропущенных сэмплов тишиной : Да
Удаление блоков с тишиной в начале и конце : Нет
При вычислениях CRC использовались нулевые сэмплы : Да
Интерфейс : Установленный внешний ASPI-интерфейс

Выходной формат : Внутренние WAV-операции
Формат сэмплов : 44.100 Гц; 16 бит; стерео

TOC извлечённого CD

Трек | Старт | Длительность | Начальный сектор | Конечный сектор
---------------------------------------------------------------------
1 | 0:00.00 | 4:26.61 | 0 | 20010
2 | 4:26.61 | 2:53.03 | 20011 | 32988
3 | 7:19.64 | 3:19.09 | 32989 | 47922
4 | 10:38.73 | 3:51.24 | 47923 | 65271
5 | 14:30.22 | 4:17.09 | 65272 | 84555
6 | 18:47.31 | 2:45.56 | 84556 | 96986
7 | 21:33.12 | 4:42.46 | 96987 | 118182
8 | 26:15.58 | 3:58.13 | 118183 | 136045
9 | 30:13.71 | 4:18.57 | 136046 | 155452
10 | 34:32.53 | 3:48.59 | 155453 | 172611
11 | 38:21.37 | 3:51.00 | 172612 | 189936
12 | 42:12.37 | 3:14.70 | 189937 | 204556

Характеристики диапазона извлечения и сообщения об ошибках

Выбранный диапазон

Имя файла G:\Lossless\НеДіля - Fortissimo.wav

Пиковый уровень 100.0 %
Качество диапазона 100.0 %
CRC копии 7811D9E7
Копирование... OK

Ошибок не произошло

Конец отчёта
Тривалість: 02:56:25
Мова: українська, англійська, російська
Аудіо-кодек: APE
Бітрейт: 909-980 кб/с
Джерело: Інший трекер
Додаткова інформація:
Гурт був створений 10 червня 2004р. Едуардом Приступою, який більше відомий під псевдонімом «Діля». Сьогодні Діля – популярний український виконавець, композитор, аранжувальник, продюсер та телеведучий. Стиль музики гурту «НеДіля» – поп-рок.
Назва «НеДіля» походить від одного з улюблених днів гурту – «неділі». Вона увібрала у себе весь той спокій та позитивну енергетику, які дарують людям вихідні та які допомагають кожній людині налаштуватись на потрібний лад та насолодитись красивою музикою.
За плечима лідера гурту 12 повноцінних платівок. Це – зовсім нещодавно випущені альбоми «Тричі – Понеділок» та Bestseller (спільна робота з гуртом «Тайный Заговор»), також 6 альбомів у складі ТНМК (вагома участь у створенні таких хітових композицій, як «Восени», «Вода», «Пупсики», «На дачу.ru» тощо), 2 альбоми Росави, та 2 сольних альбоми «НеДіля» й «Трохи теплих слів».


Якщо Ви справді бажаєте підтримати українське - після прослуховування, якщо музика вам сподобалась, придбайте ліцензійний диск. Підтримаймо вітчизняних виконавців!


Золотий реліз (завантажене не впливає на рейтинг)
 Трекер:    Зареєстрований   

Завантажити / скачати українську музику



відео для новачків



 Зареєстрований:   2013-06-08 13:17
 Розмір:   1.23 GB 
 Оцінка музики:   10/10 (Голосів: 8)
   
Ваш часовий пояс: GMT + 2 Години

Нова тема   Відповісти