Завантажити та скачати торренти українською


Скажений бик / Raging Bull (1980) 720p 2xUkr/Eng | Sub Ukr/Eng

Нові коментарі

Нова тема   Відповісти
Автор Повідомлення
aalleexx85 
Відео Гуртом - фільмокрай
Відео Гуртом - фільмокрай


З нами з: 27.07.10
Востаннє: 07.12.16
Повідомлень: 1139

2013-06-06 16:03  
Скажений бик / Raging Bull (1980) 720p 2xUkr/Eng | Sub Ukr/Eng


"So, for the second time,
summoned the man who had been blind and said:
'Speak the truth before God.
We know this fellow is a sinner.'
'Whether or not he is a sinner, I do not know.'
the man replied.
'All I know is this:
once I was blind and now I can see.'


Жанр: біографічний, драма, спорт
Країна: USA



Кінокомпанія: United Artists, Chartoff-Winkler Productions
Режисер: Мартін Скорсезе / Martin Scorsese
Актори: Роберт Де Ніро / Robert De Niro, Кеті Моріарті / Cathy Moriarty, Джо Пеші / Joe Pesci, Френк Вінсент / Frank Vincent, Ніколас Коласанто / Nicholas Colasanto, Тереза Салдана / Theresa Saldana, Маріо Ґалло / Mario Gallo, Френк Адоніс / Frank Adonis, Джозеф Бано / Joseph Bono, Френк Топем / Frank Topham

Сюжет:
Джейк ЛаМотта, що отримав прізвисько Бронкський Бик, - боксер. І всі його психологічні і сексуальні комплекси люто викидаються на боксерському ринзі. Під гарячу руку йому попадається рідний брат, який став жертвою нав'язливої параної і ревнощів Джейка, а також п'ятнадцятирічна дівчинка, якій судилося стати найголовнішою нагородою Джейка ... і маною, що переслідує його.


Тривалість: 02:09:02
Якість:
Відео:
кодек:
розмір кадру: 1280х720
бітрейт: 4020 кб/с

Аудіо # 1:
мова: українська
переклад: багатоголосий закадровий / Omikron
кодек: 5.1
бітрейт: 448 кб/с

Аудіо # 2:
мова: українська
переклад: багатоголосий закадровий /
кодек: 2.0 (Стерео)
бітрейт: 192 кб/с

Аудіо # 3:
мова: англійська
переклад: оригінал
кодек: 5.1
бітрейт: 448 кб/с

Субтитри 1:
мова: англійська
тип: програмні (м'які)
формат: *.srt

Субтитри 2:
мова: українська
тип: програмні (м'які)
формат: *.srt
MediaInfo
General
Unique ID : 224858598484471596265346805791606389025 (0xA92A30D8C14883F09AFD55B998C33921)
Complete name : G:\Video\Drama\Raging Bull (1980) [2xukr,eng] 720p [Hurtom].mkv
Format : Matroska
Format version : Version 2
File size : 4.55 GiB
Duration : 2h 9mn
Overall bit rate : 5 050 Kbps
Movie name : Raging Bull (1980) 720p (2xukr,eng)
Encoded date : UTC 2013-06-02 08:34:43
Writing application : mkvmerge v4.9.1 ('Ich will') зібрано Jul 11 2011 23:53:15
Writing library : libebml v1.2.1 + libmatroska v1.1.1

Video
ID : 1
Format : AVC
Format/Info : Advanced Video Codec
Format profile : [email protected]
Format settings, CABAC : No
Format settings, ReFrames : 1 frame
Format settings, GOP : M=1, N=12
Codec ID : V_MPEG4/ISO/AVC
Duration : 2h 9mn
Bit rate : 4 020 Kbps
Width : 1 280 pixels
Height : 720 pixels
Display aspect ratio : 16:9
Original display aspect ratio : 16:9
Frame rate : 23.976 fps
Color space : YUV
Chroma subsampling : 4:2:0
Bit depth : 8 bits
Scan type : Progressive
Bits/(Pixel*Frame) : 0.182
Stream size : 3.48 GiB (76%)
Title : Raging Bull (1980) 720p (2xukr,eng)
Writing library : core 57
Encoding settings : cabac=0 / ref=1 / deblock=0:0:0 / analyse=0x1:0 / me=dia / subme=7 / brdo=0 / mixed_ref=0 / me_range=4 / chroma_me=0 / trellis=0 / 8x8dct=0 / cqm=0 / deadzone=21,11 / chroma_qp_offset=0 / threads=1 / nr=0 / decimate=1 / mbaff=0 / bframes=0 / keyint=12 / keyint_min=7 / scenecut=0 / rc=abr / bitrate=4020 / ratetol=1.0 / rceq='tex^qComp' / qcomp=0.50 / qpmin=2 / qpmax=31 / qpstep=3 / ip_ratio=1.25
Language : English
Default : Yes
Forced : No

Audio #1
ID : 2
Format : AC-3
Format/Info : Audio Coding 3
Mode extension : CM (complete main)
Codec ID : A_AC3
Duration : 2h 9mn
Bit rate mode : Constant
Bit rate : 448 Kbps
Channel(s) : 6 channels
Channel positions : Front: L C R, Side: L R, LFE
Sampling rate : 48.0 KHz
Bit depth : 16 bits
Compression mode : Lossy
Delay relative to video : 1s 0ms
Stream size : 414 MiB (9%)
Title : Omikron
Language : Ukrainian
Default : Yes
Forced : No

Audio #2
ID : 3
Format : AC-3
Format/Info : Audio Coding 3
Mode extension : CM (complete main)
Codec ID : A_AC3
Duration : 2h 9mn
Bit rate mode : Constant
Bit rate : 192 Kbps
Channel(s) : 2 channels
Channel positions : Front: L R
Sampling rate : 48.0 KHz
Bit depth : 16 bits
Compression mode : Lossy
Delay relative to video : 1s 0ms
Stream size : 177 MiB (4%)
Title : Inter-film
Language : Ukrainian
Default : No
Forced : No

Audio #3
ID : 4
Format : AC-3
Format/Info : Audio Coding 3
Mode extension : CM (complete main)
Codec ID : A_AC3
Duration : 2h 9mn
Bit rate mode : Constant
Bit rate : 448 Kbps
Channel(s) : 6 channels
Channel positions : Front: L C R, Side: L R, LFE
Sampling rate : 48.0 KHz
Bit depth : 16 bits
Compression mode : Lossy
Stream size : 414 MiB (9%)
Title : Original 448 kbps
Language : English
Default : No
Forced : No

Text #1
ID : 5
Format : UTF-8
Codec ID : S_TEXT/UTF8
Codec ID/Info : UTF-8 Plain Text
Language : English
Default : No
Forced : No

Text #2
ID : 6
Format : UTF-8
Codec ID : S_TEXT/UTF8
Codec ID/Info : UTF-8 Plain Text
Language : Ukrainian
Default : Yes
Forced : No
Скріншоти:




Джерело:
Особиста оцінка: 10 - без зайвих вагань рекомендую всім!


Авторський реліз (завантажувати можна без реєстрації)
 Трекер:    Зареєстрований   

Завантажити / скачати фільм українською



відео для новачків



 Зареєстрований:   2013-06-06 16:03
 Розмір:   4.55 GB 
 Оцінка фільму:   9.9/10 (Голосів: 7)
   
Інші релізи
   Скажений бик / Raging Bull (1980) 2xUkr/Eng | Sub Ukr/Eng karvai0  0 / 2   2.76 GB   2013-03-29 07:13 
   Скажений бик / Raging Bull (1980) 720p Ukr/Eng | Sub Ukr/Eng Omikron  4 / 0   9.17 GB   2012-06-20 19:03 
   Скажений бик / Raging Bull (1980) Remux Ukr/Eng | Sub Ukr/Eng Omikron  0 / 0   32.46 GB   2012-06-20 18:29 
ratbol 
Модератор HD


З нами з: 03.02.09
Востаннє: 07.12.16
Повідомлень: 1088

2013-06-06 16:05  
aalleexx85 написано:

Аудіо # 2:
мова: українська
переклад: багатоголосий закадровий /
кодек: 2.0
бітрейт: 192 кб/с

Стерео?

karvai0 
Відео Гуртом - запис з ТБ
Відео Гуртом - запис з ТБ


З нами з: 18.01.10
Востаннє: 09.09.16
Повідомлень: 3686

2013-06-06 16:27  
ratbol
так

Ваш часовий пояс: GMT + 2 Години

Нова тема   Відповісти