Завантажити та скачати торренти українською


ГИЧ оркестр - Дискографія (2 альбоми) (2013) [FLAC] | Folk / Rock

Нові коментарі

Нова тема   Відповісти
Автор Повідомлення
gosha.samovar 
VIP


З нами з: 08.09.10
Востаннє: 06.12.16
Повідомлень: 400

2013-06-06 12:20  
ГИЧ оркестр - Дискографія (2 альбоми) (2013) [FLAC] | Folk / Rock

ГИЧ оркестр - Дискографія (2 альбоми) (2013) [FLAC] | Folk / Rock


Стиль: Folk Rock
Країна, місто: Україна, Львів
Сайти: Офіційний сайт
Видавець: FONіЯ records
Виконавці:
    1. Мар’ян Пирожок - вокал, гітара, гармоніка усна
    2. Павло Мигаль - гітара
    3. Володимир Флойд Романів - бас гітара
    4. Володимир Бедзвін - віолончель
    5. Павло Проців - скрипка
    6. Любомир Іщук - перкусія, мандоліна, духові
    7. Остап Костюк - труба, духові
    8. Всеволод Садовий - барабани

Пісні:
2013 - Півальбома
    01. Жуки
    02. Сиджу я край віконечка
    03. Несе Галя Воду
    04. Тінь День Сум
    05. Магнолії лимонний Дух
    06. Хепендефіленс
EAC log
Exact Audio Copy V1.0 beta 3 from 29. August 2011

Отчёт EAC об извлечении, выполненном 5. июня 2013, 23:09

ГИЧ оркестр / Півальбома

Дисковод: PHILIPS SPD2519T Adapter: 2 ID: 0

Режим чтения : Достоверность
Использование точного потока : Да
Отключение кэша аудио : Да
Использование указателей C2 : Нет

Коррекция смещения при чтении : 6
Способность читать области Lead-in и Lead-out : Нет
Заполнение пропущенных сэмплов тишиной : Да
Удаление блоков с тишиной в начале и конце : Нет
При вычислениях CRC использовались нулевые сэмплы : Да
Интерфейс : Встроенный Win32-интерфейс для Win NT/2000

Выходной формат : Пользовательский кодировщик
Выбранный битрейт : 1024 kBit/s
Качество : Высокий
Добавление ID3-тега : Нет
Утилита сжатия : D:\soft_2\EAC\Exact Audio Copy\Flac\flac.exe
Дополнительные параметры : -V -8 -T "Date=%year%" -T "Genre=%genre%" %source%

TOC извлечённого CD

Трек | Старт | Длительность | Начальный сектор | Конечный сектор
---------------------------------------------------------------------
1 | 0:00.00 | 3:54.42 | 0 | 17591
2 | 3:54.42 | 3:52.57 | 17592 | 35048
3 | 7:47.24 | 5:24.18 | 35049 | 59366
4 | 13:11.42 | 4:15.67 | 59367 | 78558
5 | 17:27.34 | 4:44.26 | 78559 | 99884
6 | 22:11.60 | 4:19.69 | 99885 | 119378

Характеристики диапазона извлечения и сообщения об ошибках

Выбранный диапазон

Имя файла N:\Роздачі\ГИЧ оркестр\2013 - Півальбома\ГИЧ оркестр - Півальбома.wav

Пиковый уровень 100.0 %
Скорость извлечения 2.3 X
Качество диапазона 100.0 %
CRC теста 9E62A81E
CRC копии 9E62A81E
Копирование... OK

Ошибок не произошло

AccurateRip: сводка

Трек 1 отсутствует в базе данных
Трек 2 отсутствует в базе данных
Трек 3 отсутствует в базе данных
Трек 4 отсутствует в базе данных
Трек 5 отсутствует в базе данных
Трек 6 отсутствует в базе данных

Ни одного трека нет в базе AccurateRip

Конец отчёта

==== Контрольная сумма отчёта B00E5C55BF521C3DA1605E8B5F1A4FD2A6DC595C26E0B58ADFB71251B32F4AAE ====
Спектр
Тривалість: 00:26:32
Мова: українська, англійська (06)
Аудіо-кодек: FLAC
Бітрейт: 939 кб/с
2013 - Цілий
    01. Жуки
    02. Арфами
    03. Несе Галя Воду
    04. Магнолії лимонний дух
    05. Тінь День Сум
    06. Чом ти не прийшов
    07. Жимапель Мірабель
    08. Рободід та Робобаба
    09. Верстат
    10. Сиджу я край віконечка
    11. Хепендефіленс
    12. Любіть Україну
EAC log
Exact Audio Copy V1.0 beta 3 from 29. August 2011

Отчёт EAC об извлечении, выполненном 24. декабря 2013, 23:53

ГИЧ оркестр / Цілий

Дисковод: PHILIPS SPD2519T Adapter: 2 ID: 0

Режим чтения : Достоверность
Использование точного потока : Да
Отключение кэша аудио : Да
Использование указателей C2 : Нет

Коррекция смещения при чтении : 6
Способность читать области Lead-in и Lead-out : Нет
Заполнение пропущенных сэмплов тишиной : Да
Удаление блоков с тишиной в начале и конце : Нет
При вычислениях CRC использовались нулевые сэмплы : Да
Интерфейс : Встроенный Win32-интерфейс для Win NT/2000

Выходной формат : Пользовательский кодировщик
Выбранный битрейт : 1024 kBit/s
Качество : Высокий
Добавление ID3-тега : Нет
Утилита сжатия : D:\soft_2\EAC\Exact Audio Copy\Flac\flac.exe
Дополнительные параметры : -V -8 -T "Date=%year%" -T "Genre=%genre%" %source%

TOC извлечённого CD

Трек | Старт | Длительность | Начальный сектор | Конечный сектор
---------------------------------------------------------------------
1 | 0:00.00 | 3:52.72 | 0 | 17471
2 | 3:52.72 | 3:39.35 | 17472 | 33931
3 | 7:32.32 | 5:24.18 | 33932 | 58249
4 | 12:56.50 | 4:44.26 | 58250 | 79575
5 | 17:41.01 | 4:15.67 | 79576 | 98767
6 | 21:56.68 | 5:18.69 | 98768 | 122686
7 | 27:15.62 | 2:44.72 | 122687 | 135058
8 | 30:00.59 | 3:13.42 | 135059 | 149575
9 | 33:14.26 | 2:47.23 | 149576 | 162123
10 | 36:01.49 | 3:52.57 | 162124 | 179580
11 | 39:54.31 | 4:20.30 | 179581 | 199110
12 | 44:14.61 | 4:46.13 | 199111 | 220573

Характеристики диапазона извлечения и сообщения об ошибках

Выбранный диапазон

Имя файла N:\Роздачі\ГИЧ оркестр\2013 - Цілий\ГИЧ оркестр - Цілий.wav

Пиковый уровень 100.0 %
Скорость извлечения 3.5 X
Качество диапазона 100.0 %
CRC теста 408124C3
CRC копии 408124C3
Копирование... OK

Ошибок не произошло

AccurateRip: сводка

Трек 1 отсутствует в базе данных
Трек 2 отсутствует в базе данных
Трек 3 отсутствует в базе данных
Трек 4 отсутствует в базе данных
Трек 5 отсутствует в базе данных
Трек 6 отсутствует в базе данных
Трек 7 отсутствует в базе данных
Трек 8 отсутствует в базе данных
Трек 9 отсутствует в базе данных
Трек 10 отсутствует в базе данных
Трек 11 отсутствует в базе данных
Трек 12 отсутствует в базе данных

Ни одного трека нет в базе AccurateRip

Конец отчёта

==== Контрольная сумма отчёта A307CCE557D33A9FF3990DBAC35D31BA7EBA38AA2CAE0087037DB12A72301FD9 ====
Спектр
Тривалість: 00:49:01
Мова: українська, французька (07), англійська (11)
Аудіо-кодек: FLAC
Бітрейт: 922 кб/с
Тривалість: 01:15:33
Мова: українська, французька, англійська
Аудіо-кодек: FLAC
Бітрейт: 922 кб/с
Джерело: Власні ріпи власних CD

Якщо Ви справді бажаєте підтримати українське - після прослуховування, якщо музика вам сподобалась, придбайте ліцензійний диск. Підтримаймо вітчизняних виконавців!


Золотий реліз (завантажене не впливає на рейтинг)
 Трекер:    Зареєстрований   

Завантажити / скачати українську музику



відео для новачків



 Зареєстрований:   2014-01-01 21:53
 Розмір:   681 MB 
 Оцінка музики:   9.9/10 (Голосів: 11)
   
gosha.samovar 
VIP


З нами з: 08.09.10
Востаннє: 06.12.16
Повідомлень: 400

2014-01-01 21:57  
Увага!
Торент-файл оновлено, оскільки роздача одного альбому перетворилася на роздачу дискографії.

Усіх з Новим роком!

Ваш часовий пояс: GMT + 2 Години

Нова тема   Відповісти