Завантажити та скачати торренти українською


Погані хлопці / Bad Boys (1995) 1080p 2xUkr/Eng | Sub Eng

Нові коментарі

Нова тема   Відповісти
Автор Повідомлення
Anonymous 







2013-06-05 10:06  
Погані хлопці / Bad Boys (1995) 1080p 2xUkr/Eng | Sub Eng



Жанр: бойовик, трилер, драма, комедія, кримінальний
Країна: США



Кінокомпанія: Columbia Pictures, Don Simpson/Jerry Bruckheimer Films
Режисер: Майкл Бей / Michael Bay
Актори: Мартін Лоуренс / Martin Lawrence, Вілл Сміт / Will Smith, Теа Леоні / Tea Leoni, Чекі Каріо / Tcheky Karyo, Тереза Рендл / Theresa Randle, Мардж Хелгенбергер / Marg Helgenberger, Нестор Серрано / Nestor Serrano, Хуліо Оскар Мечосо / Julio Oscar Mechoso, Саверіо Гуерра / Saverio Guerra, Анна Томсон / Anna Thomson, Кевін Корріген / Kevin Corrigan, Майкл Імперіолі / Michael Imperioli, Джо Пантоліано / Joe Pantoliano та інші

Сюжет:
Вони - повна протилежність один одного. Один з них - зразковий сім'янин і не має багато грошей, інший багатий і користується всіма благами холостяцького життя. Крім дружби їх об'єднує робота в поліції.
Їх нове завдання - зловити жорстокого злочинця, що вкрав наркотики з секретного складу, а також врятувати дівчину, яка випадково опинилася на його шляху. Але для цього друзям доведеться помінятися місцями...


рейтинг MPAA: R - особам до 17 років обов'язкова присутність батьків або дорослого опікуна

Тривалість: 01:58:51
Якість: 1080p
Відео:
кодек:
розмір кадру: 1920x1040
бітрейт: 8070 кб/с

Аудіо # 1: Так Треба Продакшн на замовлення
мова: українська
переклад: багатоголосий закадровий
Ролі озвучили: Юрій Гребельник (Майк Лоурі / Вілл Сміт), Юрій Ребрик (Маркус Барнетт / Мартін Лоуренс), Олена Яблучна і ще один поки невстановлений чоловічий голос
кодек: 5.1
бітрейт: 384 кб/с

Аудіо # 2: Студія "Мова" для
мова: українська
переклад: багатоголосий закадровий
Ролі озвучили: Михайло Кришталь (Майк Лоурі / Вілл Сміт), ще один чоловічий, Микола Говор (Фуше / Чекі Каріо) і один чи два невстановлених жіночих голоси
кодек: 5.1
бітрейт: 384 кб/с

Аудіо # 3:
мова: англійська
переклад: оригінал
кодек: 5.1
бітрейт: 640 кб/с

Субтитри:
мова: англійська
тип: програмні (м'які)
формат: *.srt

Збережено оригінальні розділи, як на Blu-ray.
MediaInfo
General
Unique ID : 180959172276005946348607442274540226638 (0x8823780731F3763F850E90573FB6884E)
Complete name : Bad.Boys.1995..1080p.2xUkr.Eng.mkv
Format : Matroska
Format version : Version 4 / Version 2
File size : 7.87 GiB
Duration : 1h 58mn
Overall bit rate : 9 481 Kbps
Movie name : Погані хлопці / Bad Boys / Плохие парни (1995)
Encoded date : UTC 2013-06-04 15:57:11
Writing application : mkvmerge v6.2.0 ('Promised Land') built on Apr 28 2013 12:22:01
Writing library : libebml v1.3.0 + libmatroska v1.4.0

Video
ID : 1
Format : AVC
Format/Info : Advanced Video Codec
Format profile : [email protected]
Format settings, CABAC : Yes
Format settings, ReFrames : 4 frames
Codec ID : V_MPEG4/ISO/AVC
Duration : 1h 58mn
Bit rate : 8 070 Kbps
Width : 1 920 pixels
Height : 1 040 pixels
Display aspect ratio : 1.85:1
Frame rate mode : Constant
Frame rate : 23.976 fps
Color space : YUV
Chroma subsampling : 4:2:0
Bit depth : 8 bits
Scan type : Progressive
Bits/(Pixel*Frame) : 0.169
Stream size : 6.54 GiB (83%)
Title : Погані хлопці / Bad Boys / Плохие парни (1995), [Boriy]
Writing library : core 133 r2334 a3ac64b
Encoding settings : cabac=1 / ref=4 / deblock=1:0:0 / analyse=0x3:0x113 / me=umh / subme=10 / psy=1 / psy_rd=1.00:0.10 / mixed_ref=1 / me_range=32 / chroma_me=1 / trellis=2 / 8x8dct=1 / cqm=0 / deadzone=21,11 / fast_pskip=0 / chroma_qp_offset=-2 / threads=12 / lookahead_threads=1 / sliced_threads=0 / nr=0 / decimate=0 / interlaced=0 / bluray_compat=0 / constrained_intra=0 / bframes=5 / b_pyramid=2 / b_adapt=2 / b_bias=0 / direct=3 / weightb=1 / open_gop=0 / weightp=2 / keyint=240 / keyint_min=23 / scenecut=40 / intra_refresh=0 / rc=2pass / mbtree=0 / bitrate=8070 / ratetol=1.0 / qcomp=0.60 / qpmin=0 / qpmax=69 / qpstep=4 / cplxblur=20.0 / qblur=0.5 / ip_ratio=1.40 / pb_ratio=1.30 / aq=1:0.80
Language : English
Default : Yes
Forced : No

Audio #1
ID : 2
Format : AC-3
Format/Info : Audio Coding 3
Mode extension : CM (complete main)
Format settings, Endianness : Big
Codec ID : A_AC3
Duration : 1h 58mn
Bit rate mode : Constant
Bit rate : 384 Kbps
Channel(s) : 6 channels
Channel positions : Front: L C R, Side: L R, LFE
Sampling rate : 48.0 KHz
Bit depth : 16 bits
Compression mode : Lossy
Delay relative to video : 2s 825ms
Stream size : 326 MiB (4%)
Title : MVO [Inter-TakTrebaProduction] 5.1 384 Kbps [Hurtom-_oles]
Language : Ukrainian
Default : Yes
Forced : No

Audio #2
ID : 3
Format : AC-3
Format/Info : Audio Coding 3
Mode extension : CM (complete main)
Format settings, Endianness : Big
Codec ID : A_AC3
Duration : 1h 58mn
Bit rate mode : Constant
Bit rate : 384 Kbps
Channel(s) : 6 channels
Channel positions : Front: L C R, Side: L R, LFE
Sampling rate : 48.0 KHz
Bit depth : 16 bits
Compression mode : Lossy
Delay relative to video : 1s 716ms
Stream size : 326 MiB (4%)
Title : MVO [TRK Ukraina-Mova] 5.1 384 Kbps [Hurtom-_oles]
Language : Ukrainian
Default : No
Forced : No

Audio #3
ID : 4
Format : AC-3
Format/Info : Audio Coding 3
Mode extension : CM (complete main)
Format settings, Endianness : Big
Codec ID : A_AC3
Duration : 1h 58mn
Bit rate mode : Constant
Bit rate : 640 Kbps
Channel(s) : 6 channels
Channel positions : Front: L C R, Side: L R, LFE
Sampling rate : 48.0 KHz
Bit depth : 16 bits
Compression mode : Lossy
Stream size : 544 MiB (7%)
Title : Original
Language : English
Default : No
Forced : No

Text
ID : 5
Format : UTF-8
Codec ID : S_TEXT/UTF8
Codec ID/Info : UTF-8 Plain Text
Title : Eng full
Language : English
Default : No
Forced : No

Menu
00:00:00.000 : :Chapter 1
00:06:37.105 : :Chapter 2
00:15:29.303 : :Chapter 3
00:20:50.874 : :Chapter 4
00:29:11.416 : :Chapter 5
00:35:19.992 : :Chapter 6
00:42:19.787 : :Chapter 7
00:50:59.055 : :Chapter 8
00:59:15.718 : :Chapter 9
01:04:30.867 : :Chapter 10
01:13:50.801 : :Chapter 11
01:19:42.486 : :Chapter 12
01:27:59.524 : :Chapter 13
01:33:25.725 : :Chapter 14
01:41:20.616 : :Chapter 15
01:48:48.688 : :Chapter 16


Джерела та подяки: ріп відео, оригінальні звук та субтитри, - boriy (рутор); українські доріжки - _oles - зведення, drakon87 та Romario_O - запис з ТБ; український постер - thefir (всі - Гуртом).

Особиста оцінка: 8 - мені сподобалося

ЗАЛИШАЙТЕСЬ ЯКОМОГА ДОВШЕ НА РОЗДАЧІ, НЕ ОБМЕЖУЙТЕ ШВИДКІСТЬ ВІДДАЧІ!

СКАЧАВ САМ - ДАЙ СКАЧАТИ ІНШИМ


Срібний реліз (на рейтинг впливає 50% завантаженого)
 Трекер:    Зареєстрований   

Завантажити / скачати фільм українською



відео для новачків



 Зареєстрований:   2013-06-05 10:23
 Розмір:   7.87 GB 
 Оцінка фільму:   5.5/10 (Голосів: 20)
   
Інші релізи
   Погані хлопці / Bad Boys (1995) 720p Ukr/Eng imlevchenko  3 / 0   4.36 GB   2011-03-13 21:40 
Ваш часовий пояс: GMT + 2 Години

Нова тема   Відповісти