Завантажити та скачати торренти українською


Знаки / Signs (2002) 1080p Ukr/Eng | sub Eng

Нові коментарі

Нова тема   Відповісти
Автор Повідомлення
Anonymous 







2013-05-31 20:44  
Знаки / Signs (2002) 1080p Ukr/Eng | sub Eng



Жанр: фантастика, трилер, драма, детектив
Країна: США



Кінокомпанія: Touchstone Pictures, Blinding Edge Pictures, Kennedy/Marshall Company
Режисер: М. Найт Ш'ямалан / M. Night Shyamalan
Актори: Мел Ґібсон / Mel Gibson, Хоакін Фенікс / Joaquin Phoenix, Рорі Калкін / Rory Culkin, Ебігейл Бреслін / Abigail Breslin, Черрі Джонс / Cherry Jones, М. Найт Ш'ямалан / M. Night Shyamalan, Патриція Келембер / Patricia Kalember, Тед Саттон / Ted Sutton, Мерріт Вівер / Merritt Wever, Ленні Флаерті / Lanny Flaherty

Сюжет:
У штаті Пенсільванія разом з двома своїми дітьми і братом Мерріллом живе фермер Грехем Хесс. Спокійне життя цих людей та їх звичайний уклад життя несподівано буде зруйновано дивними подіями.

Починається все з того, що на фермерських кукурудзяних полях загадковим чином утворюються величезні кола, діаметр яких досягає 150 метрів. Можливо кола, що з'явилися на полях - це сліди діяльності позаземних цивілізацій?

Грехем намагається розібратися, що ж відбувається на його фермі і з його близькими. Йому треба розгадати загадку таємничих «знаків», щоб не дати розвалитися звичному світові, що його оточує ...
Цікава інформація про фільм

• Хоакін Фенікс став учасником проекту в останній момент. Він замінив Марка Руффало, що був вимушений покинути зйомки за станом здоров'я. Пізніше Хоакін знявся і в наступному проекті Ш"ямалана «Таємничий ліс».
• Режисер М. Найт Ш'ямалан терпіти не може використовувати комп'ютерні спецефекти. Саме з цієї причини кола на полях були справжніми.
• Мел Гібсон навіть не здогадувався, що Ш'ямалан зіграє в картині лікаря. Про це він дізнався лише в день відповідних зйомок.
• Композитор Джеймс Ньютон Ховард почав роботу над саундтреком до фільму задовго до початку зйомок. Йому цілком вистачило ескізних напрацювань, люб'язно наданих Ш'ямаланом.
• На прохання режисера на постерах немає обличчя Мела Гібсона, і немає згадки про картину «Шосте чуття». Втім, від власного імені на постерах Шьямалан не відмовився.
• Кадри «аматорської відеозйомки з Бразилії» було знято самим Ш'ямаланом на власну відеокамеру.
• Роль Грехема Хесса була написана для досить літнього чоловіка. Однак після того, як від неї відмовилися Пол Ньюман і Клінт Іствуд, було прийнято рішення запросити Гібсона і внести деякі зміни в сюжет.
• Малюнки Бо Хесса насправді були створені дочкою режисера - Салек Ш'ямалан.
• Зйомки сцени, в якій Грехем останній раз розмовляє зі своєю дружиною, були заплановані на 12 вересня 2001 року. Напередодні, як ми пам'ятаємо, вибухнула жахлива катастрофа у Світовому Торговому Центрі, яка забрала життя понад 3 тисяч людей. Зйомки відбулися лише після того, як вся знімальна група поставила свічки в пам'ять загиблих.
• Сцена за участю Ш'ямалана, в якій він повідомляє Хесса про загибель його дружини, знімалася через добу після того, як режисер втратив одного зі своїх родичів в результаті смерті.
• На одну з ролей запрошувався Джонні Депп.
Тривалість: 01:46:30
Якість: 1080p
Відео:
кодек:
розмір кадру: 1920x1036
бітрейт: 9150 кб/с

Аудіо # 1:
мова: українська
переклад: багатоголосий закадровий
Ролі озвучили: Олександр Завальський, Олена Яблучна та інші
кодек: 5.1
бітрейт: 448 кб/с

Аудіо # 2:
мова: англійська
переклад: оригінал
кодек: 5.1
бітрейт: 640 кб/с

Субтитри:
мова: українська (форсовані)
тип: програмні (м'які)
формат: *.srt

Субтитри:
мова: англійська (повні)
тип: програмні (м'які)
формат: *.srt

Збережено оригінальні розділи, як на Blu-ray.
MediaInfo та
[info]: frame I:863 Avg QP:14.63 size:200480
[info]: frame P:46118 Avg QP:17.02 size: 87986
[info]: frame B:106244 Avg QP:19.01 size: 28964
===============================================================
General
Unique ID : 188513915785307097508196902795416161579 (0x8DD275A40CEC32B39058854E581FCD2B)
Complete name : Signs.2002..1080p.Ukr.Eng.mkv
Format : Matroska
Format version : Version 4 / Version 2
File size : 7.62 GiB
Duration : 1h 46mn
Overall bit rate : 10.2 Mbps
Movie name : Знаки / Signs (2002)
Encoded date : UTC 2013-05-31 16:42:24
Writing application : mkvmerge v6.2.0 ('Promised Land') built on Apr 28 2013 12:22:01
Writing library : libebml v1.3.0 + libmatroska v1.4.0

Video
ID : 1
Format : AVC
Format/Info : Advanced Video Codec
Format profile : [email protected]
Format settings, CABAC : Yes
Format settings, ReFrames : 4 frames
Codec ID : V_MPEG4/ISO/AVC
Duration : 1h 46mn
Bit rate : 9 150 Kbps
Width : 1 920 pixels
Height : 1 036 pixels
Display aspect ratio : 1.85:1
Frame rate mode : Constant
Frame rate : 23.976 fps
Color space : YUV
Chroma subsampling : 4:2:0
Bit depth : 8 bits
Scan type : Progressive
Bits/(Pixel*Frame) : 0.192
Stream size : 6.66 GiB (87%)
Title : Знаки / Signs (2002), rip by AlexKa
Writing library : core 132 r2310 76a5c3a
Encoding settings : cabac=1 / ref=4 / deblock=1:-3:-3 / analyse=0x3:0x133 / me=umh / subme=10 / psy=1 / psy_rd=1.00:0.10 / mixed_ref=1 / me_range=32 / chroma_me=1 / trellis=2 / 8x8dct=1 / cqm=0 / deadzone=21,11 / fast_pskip=0 / chroma_qp_offset=-3 / threads=12 / lookahead_threads=1 / sliced_threads=0 / nr=0 / decimate=0 / interlaced=0 / bluray_compat=0 / constrained_intra=0 / bframes=3 / b_pyramid=2 / b_adapt=2 / b_bias=0 / direct=3 / weightb=1 / open_gop=0 / weightp=2 / keyint=240 / keyint_min=23 / scenecut=40 / intra_refresh=0 / rc=2pass / mbtree=0 / bitrate=9150 / ratetol=1.0 / qcomp=0.60 / qpmin=0 / qpmax=69 / qpstep=4 / cplxblur=20.0 / qblur=0.5 / ip_ratio=1.40 / pb_ratio=1.30 / aq=1:0.80
Language : English
Default : Yes
Forced : No

Audio #1
ID : 2
Format : AC-3
Format/Info : Audio Coding 3
Mode extension : CM (complete main)
Format settings, Endianness : Big
Codec ID : A_AC3
Duration : 1h 46mn
Bit rate mode : Constant
Bit rate : 448 Kbps
Channel(s) : 6 channels
Channel positions : Front: L C R, Side: L R, LFE
Sampling rate : 48.0 KHz
Bit depth : 16 bits
Compression mode : Lossy
Stream size : 341 MiB (4%)
Title : MVO [1+1] 5.1 448 Kbps [Hurtom - JACKUS]
Language : Ukrainian
Default : Yes
Forced : No

Audio #2
ID : 3
Format : AC-3
Format/Info : Audio Coding 3
Mode extension : CM (complete main)
Format settings, Endianness : Big
Codec ID : A_AC3
Duration : 1h 46mn
Bit rate mode : Constant
Bit rate : 640 Kbps
Channel(s) : 6 channels
Channel positions : Front: L C R, Side: L R, LFE
Sampling rate : 48.0 KHz
Bit depth : 16 bits
Compression mode : Lossy
Stream size : 488 MiB (6%)
Title : Original
Language : English
Default : No
Forced : No

Text #1
ID : 4
Format : UTF-8
Codec ID : S_TEXT/UTF8
Codec ID/Info : UTF-8 Plain Text
Title : Ukr forced
Language : Ukrainian
Default : Yes
Forced : Yes

Text #2
ID : 5
Format : UTF-8
Codec ID : S_TEXT/UTF8
Codec ID/Info : UTF-8 Plain Text
Title : Eng full
Language : English
Default : No
Forced : No

Menu
00:00:00.000 : :Chapter 01
00:02:05.041 : :Chapter 02
00:07:25.278 : :Chapter 03
00:11:51.544 : :Chapter 04
00:20:33.565 : :Chapter 05
00:25:38.536 : :Chapter 06
00:29:14.753 : :Chapter 07
00:30:37.460 : :Chapter 08
00:35:19.742 : :Chapter 09
00:39:29.367 : :Chapter 10
00:48:51.261 : :Chapter 11
00:53:03.972 : :Chapter 12
00:57:17.392 : :Chapter 13
00:58:52.529 : :Chapter 14
01:05:46.025 : :Chapter 15
01:09:30.166 : :Chapter 16
01:12:41.357 : :Chapter 17
01:18:44.970 : :Chapter 18
01:25:57.402 : :Chapter 19
01:35:49.201 : :Chapter 20
01:39:31.465 : :Chapter 21
01:46:30.717 : :Chapter 22


Джерела та подяки: ріп відео, оригінальні звук та субтитри - AlexKa (рутор); українська доріжка - JACKUS - зведення, olgaya - запис з ТБ; український постер - JACKUS (всі - Гуртом).

Особиста оцінка: 8 - мені сподобалось.

ЗАЛИШАЙТЕСЬ ЯКОМОГА ДОВШЕ НА РОЗДАЧІ, НЕ ОБМЕЖУЙТЕ ШВИДКІСТЬ ВІДДАЧІ!

СКАЧАВ САМ - ДАЙ СКАЧАТИ ІНШИМ


Срібний реліз (на рейтинг впливає 50% завантаженого)
 Трекер:    Зареєстрований   

Завантажити / скачати фільм українською



відео для новачків



 Зареєстрований:   2013-05-31 20:44
 Розмір:   7.62 GB 
 Оцінка фільму:   5/10 (Голосів: 18)
   
Інші релізи
   Знаки / Signs (2002) 720p 2xUkr/Eng | Sub Eng Bod_zik99  0 / 0   4.69 GB   2016-01-18 14:49 
   Знаки / Signs (2002) 2хUkr omm  4 / 0   1.48 GB   2014-08-21 08:44 
   Знаки / Signs (2002) Ukr/Eng | sub Eng JACKUS  2 / 0   2.19 GB   2010-07-10 20:50 
leon61 
Частий відвідувач


З нами з: 09.09.08
Востаннє: 21.10.16
Повідомлень: 42

2013-06-02 11:56  
Найстрашніший фільм. Мабуть тому, що я його малим дивився.
poolvetrum 
Поважний учасник


З нами з: 01.06.14
Востаннє: 09.12.16
Повідомлень: 207

2015-03-10 17:14  
Фільму вже 13 років, але при кожному перегляді тримає у напрузі, насамперед через музику і постійне нагнітання і очікування чогось надзвичайного. Чудовий приклад як за невеличкий бюджет можна зняти дуже достойний фільм про інопланетян та ще і без використання комп'ютерної графіки, а-ля Війна Світів. Ну, може, не "про інопланетян", а коректніше буде сказати про атмосферу вторгнення неземної цивілізації. Яка, до речі, вставляє крутіше за деякі сучасні фільми жахів, які я вже давненько не дивлюсь через їх тупість. Без сумніву раджу подивитись.
Ваш часовий пояс: GMT + 2 Години

Нова тема   Відповісти