Завантажити та скачати торренти українською


Віктор Морозов - Колекція (6 CD) (2000 - 2013) [FLAC] | Rock / Folk

Нові коментарі

Нова тема   Відповісти
Автор Повідомлення
gosha.samovar 
VIP


З нами з: 08.09.10
Востаннє: 10.12.16
Повідомлень: 400

2013-05-27 22:24  
Віктор Морозов - Колекція (6 CD) (2000 - 2013) [FLAC] | Rock / Folk

Віктор Морозов - Колекція (6 CD) (2000 - 2013) [FLAC] | Rock / Folk


Стиль: Rock
Країна, місто: Україна, Львів
Сайти: Офіційний сайт
Пісні:
Віктор Морозов і "Четвертий Кут" - Треба встати і вийти - 2000 (перевидання 2007)

    01. Треба встати і вийти
    02. Старе кіно
    03. Аліна
    04. Палять листя
    05. Світлий нектар
    06. Oh my dear Ukraine
    07. Вечірній мед
    08. Колишній ідол
    09. Ходжу-броджу
    10. Остання зима
EAC log
Exact Audio Copy V1.0 beta 3 from 29. August 2011

Отчёт EAC об извлечении, выполненном 20. мая 2013, 13:16

Віктор Морозов і "Четвертий Кут" / Треба встати і вийти

Дисковод: PHILIPS SPD2519T Adapter: 2 ID: 0

Режим чтения : Достоверность
Использование точного потока : Да
Отключение кэша аудио : Да
Использование указателей C2 : Нет

Коррекция смещения при чтении : 6
Способность читать области Lead-in и Lead-out : Нет
Заполнение пропущенных сэмплов тишиной : Да
Удаление блоков с тишиной в начале и конце : Нет
При вычислениях CRC использовались нулевые сэмплы : Да
Интерфейс : Встроенный Win32-интерфейс для Win NT/2000

Выходной формат : Пользовательский кодировщик
Выбранный битрейт : 1024 kBit/s
Качество : Высокий
Добавление ID3-тега : Нет
Утилита сжатия : D:\soft_2\EAC\Exact Audio Copy\Flac\flac.exe
Дополнительные параметры : -V -8 -T "Date=%year%" -T "Genre=%genre%" %source%

TOC извлечённого CD

Трек | Старт | Длительность | Начальный сектор | Конечный сектор
---------------------------------------------------------------------
1 | 0:00.00 | 4:01.37 | 0 | 18111
2 | 4:01.37 | 5:02.23 | 18112 | 40784
3 | 9:03.60 | 3:11.04 | 40785 | 55113
4 | 12:14.64 | 2:45.23 | 55114 | 67511
5 | 15:00.12 | 6:23.13 | 67512 | 96249
6 | 21:23.25 | 2:41.10 | 96250 | 108334
7 | 24:04.35 | 4:03.62 | 108335 | 126621
8 | 28:08.22 | 3:43.08 | 126622 | 143354
9 | 31:51.30 | 2:30.10 | 143355 | 154614
10 | 34:21.40 | 4:55.62 | 154615 | 176801

Характеристики диапазона извлечения и сообщения об ошибках

Выбранный диапазон

Имя файла N:\Роздачі\Віктор Морозов\2000 - Треба встати і вийти\Віктор Морозов і ''Четвертий Кут'' - Треба встати і вийти.wav

Пиковый уровень 98.8 %
Скорость извлечения 5.3 X
Качество диапазона 100.0 %
CRC теста 97FF2D2B
CRC копии 97FF2D2B
Копирование... OK

Ошибок не произошло

AccurateRip: сводка

Трек 1 : извлечено точно (доверие 1) [F7DF1853] (AR v1)
Трек 2 : извлечено точно (доверие 1) [4AB358CE] (AR v1)
Трек 3 : извлечено точно (доверие 1) [10282F10] (AR v1)
Трек 4 : извлечено точно (доверие 1) [13F0D35B] (AR v1)
Трек 5 : извлечено точно (доверие 1) [A415CDEF] (AR v1)
Трек 6 : извлечено точно (доверие 1) [870D5DAA] (AR v1)
Трек 7 : извлечено точно (доверие 1) [A7DA6C50] (AR v1)
Трек 8 : извлечено точно (доверие 1) [DA7AEFB2] (AR v1)
Трек 9 : извлечено точно (доверие 1) [36D85A36] (AR v1)
Трек 10 : извлечено точно (доверие 1) [DAD14763] (AR v1)

Все треки извлечены точно

Конец отчёта

==== Контрольная сумма отчёта 4492C0176AD6DAFDD221501AFEA8A4A9CE28F87EC8159B293CE71C8E81B7E11B ====
Спектр
Виконавці:
"ЧЕТВЕРТИЙ КУТ":
    Віктор Морозов - вокал, гітара
    Олег Ярема - гітара
    Олег "Джон" Сук - бас (1, 3, 5, 8, 10)
    Андрій П'ятаков - ударні (1, 3, 5, 8, 10)


Тривалість: 00:39:17
Мова: українська
Аудіо-кодек: FLAC
Бітрейт: 816 кб/с
Видавець: САМЕ ТАК!
Віктор Морозов і Батяр-Бенд "Галичина" - Тільку ві Львові - 2002

    01. Батяр я си, батяр
    02. Тільку ві Львові
    03. В Стрийськім парку на фистині
    04. Панна Францішка
    05. Там на балю Ветиранів
    06. Коли музичка загра штаєра
    07. Як хлоп си пускачи
    08. З даля від ґвару
    09. За ругатков на забаву
    10. Вже дванайцять б'є мені
    11. Личаківське танго
    12. Цьотка Бандзюхова
    13. Файдулі, фай
    14. Тільку ві Львові (ремікс 30-ті роки)
EAC log
Exact Audio Copy V1.0 beta 3 from 29. August 2011

Отчёт EAC об извлечении, выполненном 20. мая 2013, 13:42

Віктор Морозов і Батяр-Бенд "Галичина" / Тільку ві Львові

Дисковод: PHILIPS SPD2519T Adapter: 2 ID: 0

Режим чтения : Достоверность
Использование точного потока : Да
Отключение кэша аудио : Да
Использование указателей C2 : Нет

Коррекция смещения при чтении : 6
Способность читать области Lead-in и Lead-out : Нет
Заполнение пропущенных сэмплов тишиной : Да
Удаление блоков с тишиной в начале и конце : Нет
При вычислениях CRC использовались нулевые сэмплы : Да
Интерфейс : Встроенный Win32-интерфейс для Win NT/2000

Выходной формат : Пользовательский кодировщик
Выбранный битрейт : 1024 kBit/s
Качество : Высокий
Добавление ID3-тега : Нет
Утилита сжатия : D:\soft_2\EAC\Exact Audio Copy\Flac\flac.exe
Дополнительные параметры : -V -8 -T "Date=%year%" -T "Genre=%genre%" %source%

TOC извлечённого CD

Трек | Старт | Длительность | Начальный сектор | Конечный сектор
---------------------------------------------------------------------
1 | 0:00.00 | 1:26.25 | 0 | 6474
2 | 1:26.25 | 2:31.57 | 6475 | 17856
3 | 3:58.07 | 3:22.45 | 17857 | 33051
4 | 7:20.52 | 2:47.45 | 33052 | 45621
5 | 10:08.22 | 3:11.33 | 45622 | 59979
6 | 13:19.55 | 3:20.55 | 59980 | 75034
7 | 16:40.35 | 2:14.15 | 75035 | 85099
8 | 18:54.50 | 3:39.22 | 85100 | 101546
9 | 22:33.72 | 3:11.00 | 101547 | 115871
10 | 25:44.72 | 2:51.00 | 115872 | 128696
11 | 28:35.72 | 1:47.18 | 128697 | 136739
12 | 30:23.15 | 3:51.25 | 136740 | 154089
13 | 34:14.40 | 3:35.25 | 154090 | 170239
14 | 37:49.65 | 2:43.35 | 170240 | 182499

Характеристики диапазона извлечения и сообщения об ошибках

Выбранный диапазон

Имя файла N:\Роздачі\Віктор Морозов\2002 - Тільку ві Львові\Віктор Морозов і Батяр-Бенд ''Галичина'' - Тільку ві Львові.wav

Пиковый уровень 98.8 %
Скорость извлечения 5.7 X
Качество диапазона 100.0 %
CRC теста 99E53A9C
CRC копии 99E53A9C
Копирование... OK

Ошибок не произошло

AccurateRip: сводка

Трек 1 : извлечено точно (доверие 2) [90F0CF8A] (AR v1)
Трек 2 : извлечено точно (доверие 2) [DE03204F] (AR v1)
Трек 3 : извлечено точно (доверие 2) [A4E0350B] (AR v1)
Трек 4 : извлечено точно (доверие 2) [1C8A072A] (AR v1)
Трек 5 : извлечено точно (доверие 2) [A31F22A3] (AR v1)
Трек 6 : извлечено точно (доверие 2) [3BD7F479] (AR v1)
Трек 7 : извлечено точно (доверие 2) [901A08F3] (AR v1)
Трек 8 : извлечено точно (доверие 2) [72F83615] (AR v1)
Трек 9 : извлечено точно (доверие 2) [727CC2AF] (AR v1)
Трек 10 : извлечено точно (доверие 2) [364824D7] (AR v1)
Трек 11 : извлечено точно (доверие 2) [5A639683] (AR v1)
Трек 12 : извлечено точно (доверие 2) [A7D3D8E8] (AR v1)
Трек 13 : извлечено точно (доверие 2) [F4A63D94] (AR v1)
Трек 14 : извлечено точно (доверие 2) [A4EFB6ED] (AR v1)

Все треки извлечены точно

Конец отчёта

==== Контрольная сумма отчёта 4C96183D8A749A995E24B0C691FDD4A25F68169FAB67CC0C0A8E0AFA708C89DB ====
Спектр
Виконавці:
Батяр-бенд "Галичина" (під орудою П. Рачинського):
    Віктор Морозов: вокал, гітара
    Петро Рачинський: акордеон
    Богдан Назар: скрипка
    Степан "Смола" Нетребяк: кларнет
    Іван Огар: контрабас
    Роман Жук: труба (6)


Тривалість: 00:40:33
Мова: українська
Аудіо-кодек: FLAC
Бітрейт: 838 кб/с
Видавець: Rostok Records
Віктор Морозов / Мертвий Півень - Афродизіяки (live) - 2003

    01. Наша зима
    02. Джульбарс
    03. Чуєш, мила
    04. Музика, що пішла
    05. Переваги окупаційного режиму
    06. Біла квітка
    07. Карколомні перевтілення
    08. Не від того я помру
    09. Карусель
    10. Пісня 551
    11. Душко моя
    12. Літо буде
    13. Oh my dear Ukraine
EAC log
Exact Audio Copy V1.0 beta 3 from 29. August 2011

Отчёт EAC об извлечении, выполненном 29. декабря 2011, 16:36

Віктор Морозов / Мертвий Півень / Афродизіяки (live)

Дисковод: PHILIPS SPD2519T Adapter: 2 ID: 0

Режим чтения : Достоверность
Использование точного потока : Да
Отключение кэша аудио : Да
Использование указателей C2 : Нет

Коррекция смещения при чтении : 6
Способность читать области Lead-in и Lead-out : Нет
Заполнение пропущенных сэмплов тишиной : Да
Удаление блоков с тишиной в начале и конце : Нет
При вычислениях CRC использовались нулевые сэмплы : Да
Интерфейс : Встроенный Win32-интерфейс для Win NT/2000

Выходной формат : Пользовательский кодировщик
Выбранный битрейт : 1024 kBit/s
Качество : Высокий
Добавление ID3-тега : Нет
Утилита сжатия : D:\soft_2\EAC\Exact Audio Copy\Flac\flac.exe
Дополнительные параметры : -V -8 -T "Date=%year%" -T "Genre=%genre%" %source%

TOC извлечённого CD

Трек | Старт | Длительность | Начальный сектор | Конечный сектор
---------------------------------------------------------------------
1 | 0:00.00 | 2:17.73 | 0 | 10347
2 | 2:17.73 | 5:37.11 | 10348 | 35633
3 | 7:55.09 | 2:54.00 | 35634 | 48683
4 | 10:49.09 | 3:06.00 | 48684 | 62633
5 | 13:55.09 | 4:08.52 | 62634 | 81285
6 | 18:03.61 | 4:40.23 | 81286 | 102308
7 | 22:44.09 | 2:52.12 | 102309 | 115220
8 | 25:36.21 | 2:24.63 | 115221 | 126083
9 | 28:01.09 | 3:22.68 | 126084 | 141301
10 | 31:24.02 | 3:00.67 | 141302 | 154868
11 | 34:24.69 | 2:34.50 | 154869 | 166468
12 | 36:59.44 | 3:11.25 | 166469 | 180818
13 | 40:10.69 | 3:32.52 | 180819 | 196770

Характеристики диапазона извлечения и сообщения об ошибках

Выбранный диапазон

Имя файла E:\Музіка!\from EAC\Віктор Морозов , Мертвий Півень - Афродизіяки (live).wav

Пиковый уровень 100.0 %
Скорость извлечения 7.3 X
Качество диапазона 100.0 %
CRC теста 69DA9015
CRC копии 69DA9015
Копирование... OK

Ошибок не произошло

Конец отчёта

==== Контрольная сумма отчёта FAC2D700B953708E9D709146247ECAC222777EF0BC91510DE1F8DD9499DBB1B0 ====
Спектр
Виконавці:
    Морозов
    Барбара
    "Джон"
    Чопик
    Небесний
    Надольський


Тривалість: 00:43:44
Мова: українська
Аудіо-кодек: FLAC
Бітрейт: 944 кб/с
Видавець: RG Music
Віктор Морозов і "Четвертий Кут" - Армія Світла - 2008

    01. Армія Світла
    02. Дощ
    03. Маки
    04. Матриця
    05. Останній воїн
    06. Алілуя
    07. Приїхали з-за Дунаю
    08. От уже й зима
    09. Не тікай
    10. Зірка ясна
    11. Уже весна
    12. Наливайко
    13. Дубе, дубе зелений
EAC log
Exact Audio Copy V1.0 beta 3 from 29. August 2011

Отчёт EAC об извлечении, выполненном 20. мая 2013, 14:36

Віктор Морозов і "Четвертий Кут" / Армія Світла

Дисковод: PHILIPS SPD2519T Adapter: 2 ID: 0

Режим чтения : Достоверность
Использование точного потока : Да
Отключение кэша аудио : Да
Использование указателей C2 : Нет

Коррекция смещения при чтении : 6
Способность читать области Lead-in и Lead-out : Нет
Заполнение пропущенных сэмплов тишиной : Да
Удаление блоков с тишиной в начале и конце : Нет
При вычислениях CRC использовались нулевые сэмплы : Да
Интерфейс : Встроенный Win32-интерфейс для Win NT/2000

Выходной формат : Пользовательский кодировщик
Выбранный битрейт : 1024 kBit/s
Качество : Высокий
Добавление ID3-тега : Нет
Утилита сжатия : D:\soft_2\EAC\Exact Audio Copy\Flac\flac.exe
Дополнительные параметры : -V -8 -T "Date=%year%" -T "Genre=%genre%" %source%

TOC извлечённого CD

Трек | Старт | Длительность | Начальный сектор | Конечный сектор
---------------------------------------------------------------------
1 | 0:00.00 | 3:37.70 | 0 | 16344
2 | 3:37.70 | 4:35.31 | 16345 | 37000
3 | 8:13.26 | 3:37.49 | 37001 | 53324
4 | 11:51.00 | 3:16.34 | 53325 | 68058
5 | 15:07.34 | 3:42.73 | 68059 | 84781
6 | 18:50.32 | 3:39.63 | 84782 | 101269
7 | 22:30.20 | 3:49.38 | 101270 | 118482
8 | 26:19.58 | 4:57.02 | 118483 | 140759
9 | 31:16.60 | 3:48.74 | 140760 | 157933
10 | 35:05.59 | 4:45.11 | 157934 | 179319
11 | 39:50.70 | 2:32.07 | 179320 | 190726
12 | 42:23.02 | 1:46.43 | 190727 | 198719
13 | 44:09.45 | 3:39.25 | 198720 | 215169

Характеристики диапазона извлечения и сообщения об ошибках

Выбранный диапазон

Имя файла N:\Роздачі\Віктор Морозов\2008 - Армія Світла\Віктор Морозов і ''Четвертий Кут'' - Армія Світла.wav

Пиковый уровень 100.0 %
Скорость извлечения 2.8 X
Качество диапазона 100.0 %
CRC теста 492C0ECD
CRC копии 492C0ECD
Копирование... OK

Ошибок не произошло

AccurateRip: сводка

Трек 1 : извлечено точно (доверие 1) [75577CFF] (AR v1)
Трек 2 : извлечено точно (доверие 1) [50323424] (AR v1)
Трек 3 : извлечено точно (доверие 1) [E88F66D6] (AR v1)
Трек 4 : извлечено точно (доверие 1) [B18ACF57] (AR v1)
Трек 5 : извлечено точно (доверие 1) [A0605CAE] (AR v1)
Трек 6 : извлечено точно (доверие 1) [B57F21AD] (AR v1)
Трек 7 : извлечено точно (доверие 1) [6933E20B] (AR v1)
Трек 8 : извлечено точно (доверие 1) [9A294E69] (AR v1)
Трек 9 : извлечено точно (доверие 1) [E255088E] (AR v1)
Трек 10 : извлечено точно (доверие 1) [55BF6D50] (AR v1)
Трек 11 : извлечено точно (доверие 1) [012956F1] (AR v1)
Трек 12 : извлечено точно (доверие 1) [F3F394CC] (AR v1)
Трек 13 : извлечено точно (доверие 1) [41981474] (AR v1)

Все треки извлечены точно

Конец отчёта

==== Контрольная сумма отчёта 1DA166E18E367196B12D535F1D37F827DD91C28AA37E85B2F5F0672CF4AD7654 ====
Спектр
Виконавці:
"ЧЕТВЕРТИЙ КУТ":
    Віктор Морозов - вокал
    Олег Ярема - акустичні гітари (1-12), клавішні (3-9, 11)
    Олег "Джон" Сук - бас-гітара (1-11)
    Андрій Надольський - ударні (1-11)
    Юрій Дуда - клавішні (5, 8, 11), труба (3, 8)


а також:
    Іван Небесний - клавішні (1, 5)
    Іван Господарець - ударні (2, 12)
    Олег Мишловський - гітара (1, 5)
    Шура Бригадир - гітара (1, 2)
    Петро Рачинський - акордеон (7, 12), вокал (12-13)
    Степан "Смола" Нетребяк - кларнет (2, 12), вокал (12-13)
    Богдан Назар - скрипка (7, 12), вокал (12-13)
    Володимир Дуда - скрипка (10)
    Олександр Сора - скрипка (2)
    Жанна Бервецька - скрипка (10)
    Володимир Мегеден - альт (10)
    Ірина Стасишин - віолончель (2, 10)
    Валентин Сударик - туба (12)

Тривалість: 00:47:49
Мова: українська
Аудіо-кодек: FLAC
Бітрейт: 872 кб/с
Видавець: Ukrmusic
Віктор Морозов і Батяр-Бенд "Галичина" - Серце Батяра - 2010

    01. Зеник
    02. Дорота
    03. Абрам
    04. То було так давно
    05. У Бомбаха файна ґара
    06. Баль у Бомбаха
    07. Батярська любов
    08. Серце батяра
    09. Кнайпа зацофана
    10. По мені не дзвони дзвонят
    11. Батярський рай
    12. Прошу пані
    13. Брами вже замкнули (Колискова)
    14. Файка (бонус-трек)
    15. Бий ґулі! (бонус-трек)
    16. Львівське пиво (бонус-трек)
    17. Чорна кава (бонус-трек)
    18. Останній бублик (бонус-трек)
    19. Жарівка (бонус-трек)
EAC log
Exact Audio Copy V1.0 beta 3 from 29. August 2011

Отчёт EAC об извлечении, выполненном 24. мая 2013, 21:20

Віктор Морозов і Батяр-Бенд "Галичина" / Серце Батяра

Дисковод: PHILIPS SPD2519T Adapter: 2 ID: 0

Режим чтения : Достоверность
Использование точного потока : Да
Отключение кэша аудио : Да
Использование указателей C2 : Нет

Коррекция смещения при чтении : 6
Способность читать области Lead-in и Lead-out : Нет
Заполнение пропущенных сэмплов тишиной : Да
Удаление блоков с тишиной в начале и конце : Нет
При вычислениях CRC использовались нулевые сэмплы : Да
Интерфейс : Встроенный Win32-интерфейс для Win NT/2000

Выходной формат : Пользовательский кодировщик
Выбранный битрейт : 1024 kBit/s
Качество : Высокий
Добавление ID3-тега : Нет
Утилита сжатия : D:\soft_2\EAC\Exact Audio Copy\Flac\flac.exe
Дополнительные параметры : -V -8 -T "Date=%year%" -T "Genre=%genre%" %source%

TOC извлечённого CD

Трек | Старт | Длительность | Начальный сектор | Конечный сектор
---------------------------------------------------------------------
1 | 0:00.00 | 3:08.72 | 0 | 14171
2 | 3:08.72 | 2:26.53 | 14172 | 25174
3 | 5:35.50 | 3:32.66 | 25175 | 41140
4 | 9:08.41 | 4:04.37 | 41141 | 59477
5 | 13:13.03 | 2:29.10 | 59478 | 70662
6 | 15:42.13 | 2:17.62 | 70663 | 80999
7 | 18:00.00 | 3:33.40 | 81000 | 97014
8 | 21:33.40 | 2:59.40 | 97015 | 110479
9 | 24:33.05 | 3:33.51 | 110480 | 126505
10 | 28:06.56 | 3:50.01 | 126506 | 143756
11 | 31:56.57 | 3:18.65 | 143757 | 158671
12 | 35:15.47 | 5:03.04 | 158672 | 181400
13 | 40:18.51 | 2:12.68 | 181401 | 191368
14 | 42:31.44 | 2:52.12 | 191369 | 204280
15 | 45:23.56 | 2:22.06 | 204281 | 214936
16 | 47:45.62 | 2:23.03 | 214937 | 225664
17 | 50:08.65 | 3:29.68 | 225665 | 241407
18 | 53:38.58 | 2:49.37 | 241408 | 254119
19 | 56:28.20 | 2:17.07 | 254120 | 264401

Характеристики диапазона извлечения и сообщения об ошибках

Выбранный диапазон

Имя файла N:\Роздачі\Віктор Морозов\2010 - Серце Батяра\Віктор Морозов і Батяр-Бенд ''Галичина'' - Серце Батяра.wav

Пиковый уровень 100.0 %
Скорость извлечения 7.6 X
Качество диапазона 100.0 %
CRC теста F8F90174
CRC копии F8F90174
Копирование... OK

Ошибок не произошло

AccurateRip: сводка

Трек 1 отсутствует в базе данных
Трек 2 отсутствует в базе данных
Трек 3 отсутствует в базе данных
Трек 4 отсутствует в базе данных
Трек 5 отсутствует в базе данных
Трек 6 отсутствует в базе данных
Трек 7 отсутствует в базе данных
Трек 8 отсутствует в базе данных
Трек 9 отсутствует в базе данных
Трек 10 отсутствует в базе данных
Трек 11 отсутствует в базе данных
Трек 12 отсутствует в базе данных
Трек 13 отсутствует в базе данных
Трек 14 отсутствует в базе данных
Трек 15 отсутствует в базе данных
Трек 16 отсутствует в базе данных
Трек 17 отсутствует в базе данных
Трек 18 отсутствует в базе данных
Трек 19 отсутствует в базе данных

Ни одного трека нет в базе AccurateRip

Конец отчёта

==== Контрольная сумма отчёта 02D446193AB61BC14D74F551A65ECBE551CF0194F561B56C92CDE21F25C0CC8E ====
Спектр
Виконавці:
Батяр-бенд "Галичина" (під орудою П. Рачинського):
    Віктор Морозов - вокал, гітара
    Петро Рачинський - акордеон
    Богдан Назар - скрипка
    Степан "Смола" Нетребяк - кларнет
    Іван Огар - контрабас


а також::
    Роман Хабаль - тенор-саксофон (3)
    Олег Ярема - гітара (13)
    Олег Петришин - труба (10)
    Роман Вовк - труба (10)
    Сергій Мартинов - тромбон (10)
    Валентин Лешневський - тромбон (10)
    Саша Ющук - туба (10)
    Володимир Дуда - скрипка (13)
    Жанна Бервецька - скрипка (13)
    Вадим Педорич - альт (13)
    Галина Жук - віолончель (13)
    Володимир Веретельник - тарілки (10)

Тривалість: 00:58:45
Мова: українська
Аудіо-кодек: FLAC
Бітрейт: 757 кб/с
Видавець: Ukrmusic
Віктор Морозов, Андрій Панчишин і Батяр-Бенд "Галичина" - Батярський Блюз - 2013

    01. На пляцу Пруса
    02. Остатний батяр
    03. Мандоліна, ґітара і бас
    04. Холєра
    05. Войтик
    06. На Кульпаркови
    07. Мій татуньо
    08. Пані Франі
    09. Батярський блюз
    10. На цвинтарі
    11. Забава
    12. Човен
    13. На Краківскім базари
    14. Матолок
    15. Марися
    16. На Професорскій Кольонії
    17. Львівська ґітара (бонус-трек)
    18. Батярська коляда (бонус-трек)
    19. P. S. (бонус-трек)
    20. Мандоліна, ґітара і бас (мінус-трек (караоке))
    21. Мій татуньо (мінус-трек (караоке))
    22. Остатний батяр (мінус-трек (караоке))
EAC log
Exact Audio Copy V1.0 beta 3 from 29. August 2011

Отчёт EAC об извлечении, выполненном 24. мая 2013, 22:18

Віктор Морозов, Андрій Панчишин і Батяр-Бенд "Галичина" / Батярський Блюз

Дисковод: PHILIPS SPD2519T Adapter: 2 ID: 0

Режим чтения : Достоверность
Использование точного потока : Да
Отключение кэша аудио : Да
Использование указателей C2 : Нет

Коррекция смещения при чтении : 6
Способность читать области Lead-in и Lead-out : Нет
Заполнение пропущенных сэмплов тишиной : Да
Удаление блоков с тишиной в начале и конце : Нет
При вычислениях CRC использовались нулевые сэмплы : Да
Интерфейс : Встроенный Win32-интерфейс для Win NT/2000

Выходной формат : Пользовательский кодировщик
Выбранный битрейт : 1024 kBit/s
Качество : Высокий
Добавление ID3-тега : Нет
Утилита сжатия : D:\soft_2\EAC\Exact Audio Copy\Flac\flac.exe
Дополнительные параметры : -V -8 -T "Date=%year%" -T "Genre=%genre%" %source%

TOC извлечённого CD

Трек | Старт | Длительность | Начальный сектор | Конечный сектор
---------------------------------------------------------------------
1 | 0:00.00 | 1:58.52 | 0 | 8901
2 | 1:58.52 | 2:35.20 | 8902 | 20546
3 | 4:33.72 | 4:10.42 | 20547 | 39338
4 | 8:44.39 | 3:00.47 | 39339 | 52885
5 | 11:45.11 | 2:09.07 | 52886 | 62567
6 | 13:54.18 | 2:48.38 | 62568 | 75205
7 | 16:42.56 | 3:02.03 | 75206 | 88858
8 | 19:44.59 | 2:22.23 | 88859 | 99531
9 | 22:07.07 | 4:07.04 | 99532 | 118060
10 | 26:14.11 | 4:23.13 | 118061 | 137798
11 | 30:37.24 | 3:20.42 | 137799 | 152840
12 | 33:57.66 | 3:01.47 | 152841 | 166462
13 | 36:59.38 | 2:23.47 | 166463 | 177234
14 | 39:23.10 | 2:06.67 | 177235 | 186751
15 | 41:30.02 | 2:22.49 | 186752 | 197450
16 | 43:52.51 | 4:19.60 | 197451 | 216935
17 | 48:12.36 | 3:00.31 | 216936 | 230466
18 | 51:12.67 | 2:05.39 | 230467 | 239880
19 | 53:18.31 | 0:20.35 | 239881 | 241415
20 | 53:38.66 | 4:11.00 | 241416 | 260240
21 | 57:49.66 | 3:02.46 | 260241 | 273936
22 | 60:52.37 | 2:35.00 | 273937 | 285561

Характеристики диапазона извлечения и сообщения об ошибках

Выбранный диапазон

Имя файла N:\Роздачі\Віктор Морозов\2013 - Батярський Блюз\Віктор Морозов, Андрій Панчишин і Батяр-Бенд ''Галичина'' - Батярський Блюз.wav

Пиковый уровень 100.0 %
Скорость извлечения 6.0 X
Качество диапазона 100.0 %
CRC теста DE17BDEB
CRC копии DE17BDEB
Копирование... OK

Ошибок не произошло

AccurateRip: сводка

Трек 1 отсутствует в базе данных
Трек 2 отсутствует в базе данных
Трек 3 отсутствует в базе данных
Трек 4 отсутствует в базе данных
Трек 5 отсутствует в базе данных
Трек 6 отсутствует в базе данных
Трек 7 отсутствует в базе данных
Трек 8 отсутствует в базе данных
Трек 9 отсутствует в базе данных
Трек 10 отсутствует в базе данных
Трек 11 отсутствует в базе данных
Трек 12 отсутствует в базе данных
Трек 13 отсутствует в базе данных
Трек 14 отсутствует в базе данных
Трек 15 отсутствует в базе данных
Трек 16 отсутствует в базе данных
Трек 17 отсутствует в базе данных
Трек 18 отсутствует в базе данных
Трек 19 отсутствует в базе данных
Трек 20 отсутствует в базе данных
Трек 21 отсутствует в базе данных
Трек 22 отсутствует в базе данных

Ни одного трека нет в базе AccurateRip

Конец отчёта

==== Контрольная сумма отчёта 5AB190F923F38CA1ECC94FC224D6BB19BA313A2F273D8AAF6824C9A1D517399A ====
Спектр
Виконавці:
Батяр-бенд "Галичина" (під орудою П. Рачинського):
    Віктор Морозов - вокал, гітара
    Петро Рачинський - акордеон
    Богдан Назар - скрипка
    Степан "Смола" Нетребяк - кларнет
    Іван Огар - контрабас


а також:
    Олег Ярема - гітара (3, 9)
    Андрій Панчишин - вокал (19)


Тривалість: 01:03:27
Мова: українська
Аудіо-кодек: FLAC
Бітрейт: 803 кб/с
Видавець: Ukrmusic
Тривалість: 04:53:30
Мова: українська
Аудіо-кодек: FLAC
Бітрейт: 757 - 944 кб/с
Джерело: Власні ріпи власних CD.

Додаткова інформація:
Роздача містить усі (наскільки мені відомо) альбоми Віктора Морозова, що виходили на CD

Якщо Ви справді бажаєте підтримати українське - після прослуховування, якщо музика вам сподобалась, придбайте ліцензійний диск. Підтримаймо вітчизняних виконавців!


Золотий реліз (завантажене не впливає на рейтинг)
 Трекер:    Зареєстрований   

Завантажити / скачати українську музику



відео для новачків



 Зареєстрований:   2013-05-27 22:24
 Розмір:   2.15 GB 
 Оцінка музики:   9.9/10 (Голосів: 23)
   
bandiora 
Новенький


З нами з: 16.09.08
Востаннє: 09.12.16
Повідомлень: 11

2013-05-28 10:31  
планується в mp3?
gosha.samovar 
VIP


З нами з: 08.09.10
Востаннє: 10.12.16
Повідомлень: 400

2013-05-28 11:53  
bandiora
Цитата:
планується в mp3?

Дублювати цей реліз у МР3 я не бачу сенсу і мені лінь (якщо у Вас є бажання - будь ласка, є нагода заробити рейтинг, а я зі свого боку проконсультую у приваті).
Але я вважаю, що Морозова, якщо робити у МР3, то треба робити не колекцію, а дискографію (http://www.victormorozov.com/ukr/victorbio.html#dysco).

Lev 
VIP


З нами з: 14.10.09
Востаннє: 09.12.16
Повідомлень: 1819

2013-05-28 23:06  
гранд респект релізеру, особливо за свіжий альбом!
Fish2048 
Новенький


З нами з: 25.11.09
Востаннє: 08.12.16
Повідомлень: 17

2013-05-29 16:40  
gosha.samovar написано:
Дублювати цей реліз у МР3 я не бачу сенсу

Happy ну як Вам сказати... я найчастіше слухаю музику в машині, тому МР3 (персонально для мене) найбільш зручний... так, я можу конвертувати, але раніше було зрцучно, у 99 % випадків викачував МР3 і голову не морочив, а зараз цей FLAC... ікс його знає, але я не помітив різниці навіть дома у звучанні між МР3 та FLAC нащо голову морочити - теж для мене загадка. лае... Ви зробили як зробили, я в будь якому разі Вам дякую. Happy

gosha.samovar 
VIP


З нами з: 08.09.10
Востаннє: 10.12.16
Повідомлень: 400

2013-05-29 21:06  
Тут кожному не догодиш. Одному зручно МР3 і він не відчуває різницю з ФЛАК. Інший скаже: давайте МР3 у 192, навіщо нам 320? Різниця ж не відчувається!
Я роблю релізи у ФЛАК тому, що я даю, по суті, оригінал диску, а ті, хто качають - нехай кожен собі робить те, що потрібно. Я думаю, безлімітний інтернет зараз не є екзотикою, та й софту для конвертації - повно, є з чого вибрати.
Цитата:
гранд респект релізеру, особливо за свіжий альбом!

Цитата:
в будь якому разі Вам дякую.

Приймається! Happy

MUDRAK 
Новенький


З нами з: 20.12.07
Востаннє: 07.06.15
Повідомлень: 2

2014-04-22 18:09  
Дякую друже...Флак круто))
gosha.samovar 
VIP


З нами з: 08.09.10
Востаннє: 10.12.16
Повідомлень: 400

2014-04-22 21:20  
Слухайте із задоволенням).
Ваш часовий пояс: GMT + 2 Години

Нова тема   Відповісти