Завантажити та скачати торренти українською


Наввипередки з Меверіком / Chasing Mavericks (2012) 1080p Ukr/Eng | Sub Eng

Нові коментарі

Нова тема   Відповісти
Автор Повідомлення
Anonymous 







2013-05-27 20:46  
Наввипередки з Меверіком / Chasing Mavericks (2012) 1080p Ukr/Eng | Sub Eng

Наввипередки з Меверіком / Chasing Mavericks (2012) 1080p Ukr/Eng | Sub Eng


Жанр: драма, спорт
Країна: США



Кінокомпанія: Fox 2000 Pictures, Walden Media
Режисер: Кертіс Хенсон / Curtis Hanson, Майкл Ептед / Michael Apted
Актори: Джерард Батлер / Gerard Butler, Джоні Вестон / Jonny Weston, Елізабет Шу / Elisabeth Shue, Ебігайл Спенсер / Abigail Spencer, Левен Рамбін / Leven Rambin, Скотт Іствуд / Scott Eastwood, Тейлор Хедлі / Taylor Handley та інші

Сюжет:
Коли Джей Моріарті з'ясовує, що хвиля Меверік - не міф, вона існує зовсім недалеко від його рідного міста, він наполягає на тому, щоб легендарний Фрості Хессон навчив його виживанню на цій хвилі. Але Фрості навчив його дещо більшому, навчився і сам...
Чи знаєте ви, що...

• Майкл Ептед займався режисурою останні три тижні основних зйомок у зв'язку з тим, що у Кертіса Хенсона були проблеми зі здоров'ям.
• Був проведений міжнародний онлайн-кастинг, щоб знайти актора на роль Джея Моріарті.
• Шість камер Red Epic були загублені під час зйомок серфінгу на хвилях Меверіках.
• Під час зйомок Джерард Батлер майже всі трюки виконував сам, у зв'язку з чим він отримав травми і був госпіталізований.
• Коли Джей працює в Pleasure Pizza, за кадром грає пісня Brimful of Asha групи Cornershop. Ця частина фільму відбувається в 1994-му, але пісня була випущена тільки в 1997 році.
• У сцені, де рано вранці серфер виходить на скелю на березі, сонце встає з лівого боку. Навіть на самій південній стороні пляжу в Каліфорнії сонце вставало б поза його спиною.
рейтинг MPAA: PG - рекомендується присутність батьків
Вікова категорія: 12+

Тривалість: 01:56:30
Якість: 1080p
Відео:
кодек:
розмір кадру: 1920x1040
бітрейт: 8639 кб/с

Аудіо # 1:
мова: українська
переклад: багатоголосий закадровий - студія "Три крапки"
кодек: 2.0
бітрейт: 256 кб/с

Аудіо # 2:
мова: англійська
переклад: оригінал
кодек: 5.1
бітрейт: 448 кб/с

Субтитри:
мова: англійська
тип: програмні (м'які)
формат: *.srt

Збережено оригінальні розділи, як на Blu-ray.
MediaInfo та
[info]: frame I:1433 Avg QP:17.91 size:217654
[info]: frame P:40896 Avg QP:21.31 size: 83304
[info]: frame B:125264 Avg QP:23.26 size: 30551
============================================
General
Unique ID : 214934540946963537573446483458998541444 (0xA1B2E3088E111BA4A6EE6975BF261C84)
Complete name : Chasing.Mavericks.2012..1080p.Ukr.Eng.mkv
Format : Matroska
Format version : Version 4 / Version 2
File size : 7.60 GiB
Duration : 1h 56mn
Overall bit rate : 9 341 Kbps
Movie name : Наввипередки з Меверіком / Chasing Mavericks / Покорители волн (2012)
Encoded date : UTC 2013-05-27 16:06:52
Writing application : mkvmerge v6.2.0 ('Promised Land') built on Apr 28 2013 12:22:01
Writing library : libebml v1.3.0 + libmatroska v1.4.0

Video
ID : 1
Format : AVC
Format/Info : Advanced Video Codec
Format profile : [email protected]
Format settings, CABAC : Yes
Format settings, ReFrames : 4 frames
Codec ID : V_MPEG4/ISO/AVC
Duration : 1h 56mn
Bit rate : 8 639 Kbps
Width : 1 920 pixels
Height : 1 040 pixels
Display aspect ratio : 1.85:1
Frame rate mode : Constant
Frame rate : 23.976 fps
Color space : YUV
Chroma subsampling : 4:2:0
Bit depth : 8 bits
Scan type : Progressive
Bits/(Pixel*Frame) : 0.180
Stream size : 6.88 GiB (90%)
Title : Наввипередки з Меверіком / Chasing Mavericks / Покорители волн (2012) [AlexKa]
Writing library : core 129 r2245 bc13772
Encoding settings : cabac=1 / ref=4 / deblock=1:-3:-3 / analyse=0x3:0x133 / me=umh / subme=11 / psy=1 / psy_rd=1.00:0.00 / mixed_ref=1 / me_range=32 / chroma_me=1 / trellis=2 / 8x8dct=1 / cqm=0 / deadzone=21,11 / fast_pskip=0 / chroma_qp_offset=-2 / threads=12 / lookahead_threads=2 / sliced_threads=0 / nr=0 / decimate=0 / interlaced=0 / bluray_compat=0 / constrained_intra=0 / bframes=5 / b_pyramid=2 / b_adapt=2 / b_bias=0 / direct=3 / weightb=1 / open_gop=0 / weightp=2 / keyint=240 / keyint_min=23 / scenecut=40 / intra_refresh=0 / rc=2pass / mbtree=0 / bitrate=8639 / ratetol=1.0 / qcomp=0.60 / qpmin=0 / qpmax=69 / qpstep=4 / cplxblur=20.0 / qblur=0.5 / ip_ratio=1.40 / pb_ratio=1.30 / aq=1:0.70
Language : English
Default : Yes
Forced : No

Audio #1
ID : 2
Format : AC-3
Format/Info : Audio Coding 3
Mode extension : CM (complete main)
Format settings, Endianness : Big
Codec ID : A_AC3
Duration : 1h 56mn
Bit rate mode : Constant
Bit rate : 256 Kbps
Channel(s) : 2 channels
Channel positions : Front: L R
Sampling rate : 48.0 KHz
Bit depth : 16 bits
Compression mode : Lossy
Stream size : 213 MiB (3%)
Title : MVO [3Dots] 2.0 256 Kbps
Language : Ukrainian
Default : Yes
Forced : No

Audio #2
ID : 3
Format : AC-3
Format/Info : Audio Coding 3
Mode extension : CM (complete main)
Format settings, Endianness : Big
Codec ID : A_AC3
Duration : 1h 56mn
Bit rate mode : Constant
Bit rate : 448 Kbps
Channel(s) : 6 channels
Channel positions : Front: L C R, Side: L R, LFE
Sampling rate : 48.0 KHz
Bit depth : 16 bits
Compression mode : Lossy
Stream size : 373 MiB (5%)
Title : Original
Language : English
Default : No
Forced : No

Text
ID : 4
Format : UTF-8
Codec ID : S_TEXT/UTF8
Codec ID/Info : UTF-8 Plain Text
Title : Eng full
Language : English
Default : No
Forced : No

Menu
00:00:00.000 : :Chapter 01
00:04:43.366 : :Chapter 02
00:08:35.347 : :Chapter 03
00:12:48.684 : :Chapter 04
00:17:09.028 : :Chapter 05
00:22:04.196 : :Chapter 06
00:28:15.485 : :Chapter 07
00:34:08.463 : :Chapter 08
00:38:34.770 : :Chapter 09
00:41:36.452 : :Chapter 10
00:44:13.692 : :Chapter 11
00:48:46.965 : :Chapter 12
00:52:18.510 : :Chapter 13
00:58:32.926 : :Chapter 14
01:00:36.549 : :Chapter 15
01:04:33.536 : :Chapter 16
01:07:56.863 : :Chapter 17
01:12:04.445 : :Chapter 18
01:15:16.720 : :Chapter 19
01:19:06.867 : :Chapter 20
01:23:13.405 : :Chapter 21
01:27:31.120 : :Chapter 22
01:31:22.185 : :Chapter 23
01:35:52.537 : :Chapter 24
01:39:34.134 : :Chapter 25
01:44:28.011 : :Chapter 26
01:49:12.170 : :Chapter 27
01:50:18.486 : :Chapter 28
01:56:29.774 : :Chapter 29


Джерела та подяки: ріп відео, оригінальні звук та субтитри - AlexKa (рутор); українська доріжка - з релізу Leben; український постер - Три крапки? (всі - Гуртом).

Особиста оцінка: 8 - рекомендую до перегляду.

ЗАЛИШАЙТЕСЬ ЯКОМОГА ДОВШЕ НА РОЗДАЧІ, НЕ ОБМЕЖУЙТЕ ШВИДКІСТЬ ВІДДАЧІ!

СКАЧАВ САМ - ДАЙ СКАЧАТИ ІНШИМ


Авторський реліз (завантажувати можна без реєстрації)
 Трекер:    Зареєстрований   

Завантажити / скачати фільм українською



відео для новачків



 Зареєстрований:   2013-05-27 20:46
 Розмір:   7.6 GB 
 Оцінка фільму:   6.6/10 (Голосів: 31)
   
Jack_Daniels 
VIP


З нами з: 30.07.10
Востаннє: 04.12.16
Повідомлень: 297

2013-05-27 23:04  
Дякую за HD ^_^
Rimbo 
VIP


З нами з: 30.04.11
Востаннє: 01.12.16
Повідомлень: 306

2013-05-29 07:41  
Ну, фільм на сімку, далекий від того спорту. Озвучення дуже сподобалося, навіть і не скажеш що аматорське. Happy
waldi-hurtom 
VIP


З нами з: 07.10.12
Востаннє: 03.12.16
Повідомлень: 611

2013-06-05 21:28  
Красивий фільм і не тільки. Але все, що було після титрів про долю прототипу, який загинув у 22 рокі, зіпсувало враження, а під кінець взагалі пробило на сміх. Якщо перезняти кінцівку (мабуть, розраховану на підлітків), оцінка піднялась би на пару пунктів, а так - 7/10. Раджу припиняти перегляд негайно після цього повідомлення. І ще - дивіться в якості! Зйомки того варті. Дякую за реліз!
bornslippy 
Новенький


З нами з: 11.04.09
Востаннє: 22.08.16
Повідомлень: 1

2013-10-03 16:56  
а я б поставив 12. супер фільм. справжній. без пафосу. про справжніх людей, про те як треба жити.
Anonymous 







2015-07-14 21:31  
Додам двоголоску 2+2 днями.
Ваш часовий пояс: GMT + 2 Години

Нова тема   Відповісти