Завантажити та скачати торренти українською


Мисливці за головами / Hodejegerne (2011) 720p Ukr/Nor | Sub Eng/Nor

Нові коментарі

Нова тема   Відповісти
Автор Повідомлення
Ursulyak 
Новенький


З нами з: 09.01.13
Востаннє: 25.03.14
Повідомлень: 13

2013-05-26 15:35  
Мисливці за головами / Hodejegerne (2011) 720p Ukr/Nor | Sub Eng/Nor

Мисливці за головами / Hodejegerne (2011) 720p Ukr/Nor | Sub Eng/Nor


Жанр: кримінальний, трилер
Країна: Норвегія, Німеччина



Кінокомпанія: Friland, Yellow Bird Films, Nordisk Film
Режисер: Мортен Тайдлум (Morten Tyldum)
Актори: Аксель Генні (Aksel Hennie), Ніколай Костер-Валдау (Nikolaj Coster-Waldau), Сайнове Макоді Лунд (Synnøve Macody Lund), Ейвінд Сендер (Eivind Sander), Джулі Ольґард (Julie R. Ølgaard) та інші.

Сюжет:
Досвідчений мисливець за головами ризикує всім, щоб отримати цінну картину, котра належить колишньому військовому найманцю...


Тривалість: 01:40:06
Якість:
Відео:
кодек:
розмір кадру: 1 280 х 534
бітрейт: 4 741 кб/с

Аудіо # 1:
мова: українська
переклад: багатоголосий закадровий | студія ААА-sound
кодек: 5.1
бітрейт: 384 кб/с

Аудіо # 2:
мова:норвезька
переклад: оригінал
кодек: 5.1
бітрейт: 1 509 кб/с

Субтитри:
мова: англійська
тип: програмні (м'які)
формат: *.srt

Субтитри:
мова: норвезька
тип: програмні (м'які)
формат: *.srt
MediaInfo
General
Unique ID : 204062776070317094175662083391778795657 (0x99850FA40B3C36299979B2F33BC53089)
Complete name : H:\!!!720\Hodejegerne.2011.BluRay.720p..Ukr.Nor.mkv
Format : Matroska
Format version : Version 4 / Version 2
File size : 4.64 GiB
Duration : 1h 40mn
Overall bit rate : 6 635 Kbps
Encoded date : UTC 2013-05-26 13:06:54
Writing application : mkvmerge v6.2.0 ('Promised Land') built on Apr 28 2013 12:22:01
Writing library : libebml v1.3.0 + libmatroska v1.4.0

Video
ID : 1
Format : AVC
Format/Info : Advanced Video Codec
Format profile : [email protected]
Format settings, CABAC : Yes
Format settings, ReFrames : 12 frames
Codec ID : V_MPEG4/ISO/AVC
Duration : 1h 40mn
Bit rate : 4 741 Kbps
Width : 1 280 pixels
Height : 534 pixels
Display aspect ratio : 2.40:1
Frame rate mode : Constant
Frame rate : 24.000 fps
Color space : YUV
Chroma subsampling : 4:2:0
Bit depth : 8 bits
Scan type : Progressive
Bits/(Pixel*Frame) : 0.289
Stream size : 3.22 GiB (69%)
Title : Hodejegerne.2011.BluRay.720p..-HDChina
Writing library : core 116 r2074 2641b9e
Encoding settings : cabac=1 / ref=12 / deblock=1:-3:-3 / analyse=0x3:0x133 / me=umh / subme=10 / psy=1 / psy_rd=1.00:0.05 / mixed_ref=1 / me_range=48 / chroma_me=1 / trellis=2 / 8x8dct=1 / cqm=0 / deadzone=21,11 / fast_pskip=0 / chroma_qp_offset=-3 / threads=9 / sliced_threads=0 / nr=0 / decimate=0 / interlaced=0 / bluray_compat=0 / constrained_intra=0 / bframes=6 / b_pyramid=2 / b_adapt=2 / b_bias=0 / direct=3 / weightb=1 / open_gop=0 / weightp=2 / keyint=360 / keyint_min=2 / scenecut=40 / intra_refresh=0 / rc_lookahead=120 / rc=2pass / mbtree=1 / bitrate=4741 / ratetol=1.0 / qcomp=0.70 / qpmin=0 / qpmax=69 / qpstep=4 / cplxblur=20.0 / qblur=0.5 / ip_ratio=1.40 / aq=2:0.90
Language : English
Default : Yes
Forced : Yes

Audio #1
ID : 2
Format : AC-3
Format/Info : Audio Coding 3
Mode extension : CM (complete main)
Format settings, Endianness : Big
Codec ID : A_AC3
Duration : 1h 40mn
Bit rate mode : Constant
Bit rate : 384 Kbps
Channel(s) : 6 channels
Channel positions : Front: L C R, Side: L R, LFE
Sampling rate : 48.0 KHz
Bit depth : 16 bits
Compression mode : Lossy
Stream size : 275 MiB (6%)
Title : Українська
Language : Ukrainian
Default : Yes
Forced : No

Audio #2
ID : 3
Format :
Format/Info : Digital Theater Systems
Mode : 16
Format settings, Endianness : Big
Codec ID : A_DTS
Duration : 1h 40mn
Bit rate mode : Constant
Bit rate : 1 509 Kbps
Channel(s) : 6 channels
Channel positions : Front: L C R, Side: L R, LFE
Sampling rate : 48.0 KHz
Bit depth : 24 bits
Compression mode : Lossy
Stream size : 1.06 GiB (23%)
Title : Оригінал
Language : Norwegian
Default : No
Forced : No

Text #1
ID : 4
Format : UTF-8
Codec ID : S_TEXT/UTF8
Codec ID/Info : UTF-8 Plain Text
Language : English
Default : Yes
Forced : No

Text #2
ID : 5
Format : UTF-8
Codec ID : S_TEXT/UTF8
Codec ID/Info : UTF-8 Plain Text
Language : Norwegian
Default : No
Forced : No

Menu
00:00:00.000 : en:Chapter.01
00:06:50.458 : en:Chapter.02
00:12:57.625 : en:Chapter.03
00:17:13.750 : en:Chapter.04
00:24:38.958 : en:Chapter.05
00:30:14.916 : en:Chapter.06
00:36:21.708 : en:Chapter.07
00:41:42.291 : en:Chapter.08
00:48:17.125 : en:Chapter.09
00:53:49.166 : en:Chapter.10
00:58:47.500 : en:Chapter.11
01:05:00.083 : en:Chapter.12
01:12:10.166 : en:Chapter.13
01:20:13.041 : en:Chapter.14
01:27:04.041 : en:Chapter.15
01:34:20.958 : en:Chapter.16
Скріншоти


















































Величезна подяка пану _oles за зведення (звук з його релізу)
Велика подяка Gelios за українізоваий постер, ua-weber та Віктору за допомогу

Джерело: &
Особиста оцінка: 0 - не дивився


 Трекер:    Зареєстрований   

Завантажити / скачати фільм українською



відео для новачків



 Зареєстрований:   2013-05-26 15:35
 Розмір:   4.64 GB 
 Оцінка фільму:   9.4/10 (Голосів: 19)
   
Інші релізи
Konfucius 
Управління
Управління


З нами з: 30.09.07
Востаннє: 04.12.16
Повідомлень: 4741

2013-05-26 19:55  
Ursulyak написано:
бітрейт: 24 bits

Виправіть.

Ursulyak 
Новенький


З нами з: 09.01.13
Востаннє: 25.03.14
Повідомлень: 13

2013-05-26 21:26  
Konfucius написано:
Виправіть.

зроблено

waldi-hurtom 
VIP


З нами з: 07.10.12
Востаннє: 03.12.16
Повідомлень: 611

2013-06-08 10:48  
Колись мені дуже сподобався фільм Дівчина з тату дракона, причому саме скандинавський. Цей фільм значно йому поступається - занадто американізований. Забагато нереальних вигадок і неймовірного екшену, часто-густо без потреби. 6 балів.
INTER-FAN 
Свій


З нами з: 25.01.10
Востаннє: 04.12.16
Повідомлень: 60

2016-07-20 21:10  
А роздачі катма... шкода... доведеться без HD жити в цей вечір.... ехеее.
Ваш часовий пояс: GMT + 2 Години

Нова тема   Відповісти