Завантажити та скачати торренти українською


Зазіхання / Trespass (1992) 720p Ukr/Eng | Sub Eng

Нові коментарі

Нова тема   Відповісти
Останній раз роздавалося SLEM_HIRE (2015-11-21)
Автор Повідомлення
aalleexx85 
Відео Гуртом - фільмокрай
Відео Гуртом - фільмокрай


З нами з: 27.07.10
Востаннє: 09.12.16
Повідомлень: 1139

2013-05-26 14:22  
Зазіхання / Trespass (1992) 720p Ukr/Eng | Sub Eng

Зазіхання / Trespass (1992) 720p Ukr/Eng | Sub Eng


They all came to the wrong place at the wrong time

Жанр: екшн, трилер
Країна: USA



Кінокомпанія: Universal Pictures
Режисер: Уолтер Хілл
Актори: Білл Пекстон, Уільям Седлер, Айс Ті, Айс Кьюб, Арт Еванс

Сюжет:
Дон і Вінс (Седлер і Пекстон) - пожежники з Арканзасу вирішили, що натрапили на мішок грошей, коли їм до рук потрапила "карта скарбів", що буцімто веде до золотих виробів, викрадених з католицької церкви більше 50 років тому. Золото заховане десь в закинутій фабриці в Східному гетто Сент-Луїса. Чиста випадковість приводить торговця наркотиками Короля Джеймса (Айс Ті) і його бойовиків на фабрику, щоб стратити вбивцю одного зі своїх кур'єрів.


Тривалість: 01:40:57
Якість:
Відео:
кодек:
розмір кадру: 1280 x 720
бітрейт: 5 999 кб/с

Аудіо # 1:
мова: українська
переклад: багатоголосий закадровий
кодек: 2.0
бітрейт: 192 кб/с

Аудіо # 2:
мова: англійська
переклад: оригінал
кодек: 5.1
бітрейт: 384 кб/с

Джерело озвучення:


Субтитри:
мова: англійська
тип: програмні (м'які)
формат: *.srt
MediaInfo
General
Unique ID : 232527106170141269592455540243552243104 (0xAEEF177763885B3B933D9A3660338DA0)
Complete name : G:\Video\Trespass (1992) [ukr, eng] 720p [Hurtom].mkv
Format : Matroska
Format version : Version 2
File size : 4.64 GiB
Duration : 1h 41mn
Overall bit rate : 6 569 Kbps
Movie name : Trespass (1992) 720p (ukr,eng)
Encoded date : UTC 2013-04-29 17:07:50
Writing application : mkvmerge v4.9.1 ('Ich will') зібрано Jul 11 2011 23:53:15
Writing library : libebml v1.2.1 + libmatroska v1.1.1

Video
ID : 1
Format : AVC
Format/Info : Advanced Video Codec
Format profile : [email protected]
Format settings, CABAC : Yes
Format settings, ReFrames : 4 frames
Codec ID : V_MPEG4/ISO/AVC
Duration : 1h 41mn
Bit rate : 5 999 Kbps
Width : 1 280 pixels
Height : 720 pixels
Display aspect ratio : 16:9
Frame rate : 23.976 fps
Color space : YUV
Chroma subsampling : 4:2:0
Bit depth : 8 bits
Scan type : Progressive
Bits/(Pixel*Frame) : 0.271
Stream size : 4.14 GiB (89%)
Title : Trespass (1992) 720p (ukr,eng)
Writing library : core 98 r1649 c54c47d
Encoding settings : cabac=1 / ref=4 / deblock=1:-1:-1 / analyse=0x3:0x113 / me=umh / subme=9 / psy=1 / psy_rd=1.00:0.15 / mixed_ref=1 / me_range=16 / chroma_me=1 / trellis=2 / 8x8dct=1 / cqm=0 / deadzone=21,11 / fast_pskip=1 / chroma_qp_offset=-3 / threads=6 / sliced_threads=0 / nr=0 / decimate=1 / interlaced=0 / constrained_intra=0 / bframes=3 / b_pyramid=2 / b_adapt=1 / b_bias=0 / direct=3 / weightb=1 / weightp=2 / keyint=250 / keyint_min=25 / scenecut=40 / intra_refresh=0 / rc_lookahead=50 / rc=2pass / mbtree=1 / bitrate=5999 / ratetol=1.0 / qcomp=0.60 / qpmin=10 / qpmax=51 / qpstep=4 / cplxblur=20.0 / qblur=0.5 / ip_ratio=1.40 / aq=1:1.00
Language : English
Default : No
Forced : No

Audio #1
ID : 2
Format : AC-3
Format/Info : Audio Coding 3
Mode extension : CM (complete main)
Codec ID : A_AC3
Duration : 1h 41mn
Bit rate mode : Constant
Bit rate : 192 Kbps
Channel(s) : 2 channels
Channel positions : Front: L R
Sampling rate : 48.0 KHz
Bit depth : 16 bits
Compression mode : Lossy
Delay relative to video : 16ms
Stream size : 139 MiB (3%)
Title : novy
Language : Ukrainian
Default : Yes
Forced : No

Audio #2
ID : 3
Format : AC-3
Format/Info : Audio Coding 3
Mode extension : CM (complete main)
Codec ID : A_AC3
Duration : 1h 41mn
Bit rate mode : Constant
Bit rate : 384 Kbps
Channel(s) : 2 channels
Channel positions : Front: L R
Sampling rate : 48.0 KHz
Bit depth : 16 bits
Compression mode : Lossy
Delay relative to video : 32ms
Stream size : 277 MiB (6%)
Title : original, 2.0 384 kbps
Language : English
Default : No
Forced : No

Text
ID : 4
Format : UTF-8
Codec ID : S_TEXT/UTF8
Codec ID/Info : UTF-8 Plain Text
Title : Full
Language : English
Default : Yes
Forced : No
Скріншоти:




Джерело:
Особиста оцінка: 10 - без зайвих вагань рекомендую всім!


Срібний реліз (на рейтинг впливає 50% завантаженого)
 Трекер:    Зареєстрований   

Завантажити / скачати фільм українською



відео для новачків



 Зареєстрований:   2013-05-26 14:22
 Розмір:   4.64 GB 
 Оцінка фільму:   10/10 (Голосів: 7)
   
Інші релізи
   Зазіхання / Trespass (1992) NemoInFire  2 / 0   1.47 GB   2012-10-12 15:40 
aalleexx85 
Відео Гуртом - фільмокрай
Відео Гуртом - фільмокрай


З нами з: 27.07.10
Востаннє: 09.12.16
Повідомлень: 1139

2013-05-28 11:44  
Цитата:
І. Принципи надання металу.

Золотий реліз:
- українське;
- непрофесійна озвучка;
- Blu-Ray/Remux.
Срібний реліз:
- все до 2005.

Бронзовий реліз:
- ...логії та релізи з декількома сезонами (випусками у випадку документальних) від 2005 до сьогодні.

чому реліз не срібний?

olyx 
Відео Гуртом - підтримка та поширення
Відео Гуртом - підтримка та поширення


З нами з: 25.01.10
Востаннє: 05.10.16
Повідомлень: 231

2013-05-28 17:25  
Я бачу ніхто на правила не зважає - тут http://toloka.to/t46957 теж не дали. Якась дискримінація чи що?
olyx 
Відео Гуртом - підтримка та поширення
Відео Гуртом - підтримка та поширення


З нами з: 25.01.10
Востаннє: 05.10.16
Повідомлень: 231

2013-06-01 18:01  
Питання до адміністрації - чому не надано ніякого металу? Людина питання задавала...
BMK12 
Відео Гуртом - підтримка та поширення
Відео Гуртом - підтримка та поширення


З нами з: 13.04.09
Востаннє: 09.12.16
Повідомлень: 2986

2014-07-15 22:07  
Роздайте, будь ласка.
aalleexx85 
Відео Гуртом - фільмокрай
Відео Гуртом - фільмокрай


З нами з: 27.07.10
Востаннє: 09.12.16
Повідомлень: 1139

2014-07-15 22:17  
роздача буде завтра
BMK12 
Відео Гуртом - підтримка та поширення
Відео Гуртом - підтримка та поширення


З нами з: 13.04.09
Востаннє: 09.12.16
Повідомлень: 2986

2014-07-17 07:37  
aalleexx85
Добре, я чекатиму.

3woody3 
Частий відвідувач


З нами з: 15.12.08
Востаннє: 05.12.16
Повідомлень: 28

2016-05-02 11:45  
Добрий день. Чи може хтось повернутись на роздачу? Або викласти доріжку?
Ваш часовий пояс: GMT + 2 Години

Нова тема   Відповісти