Завантажити та скачати торренти українською


Океан Ельзи - Земля (2013) [FLAC] | Pop-Rock

Нові коментарі

Нова тема   Відповісти
Автор Повідомлення
Wolf1488 
VIP


З нами з: 20.10.09
Востаннє: 06.12.16
Повідомлень: 429

2013-05-26 04:54  
Океан Ельзи - Земля (2013) [FLAC] | Pop-Rock

Океан Ельзи - Земля (2013) [FLAC] | Pop-Rock


Стиль: Pop Rock
Країна, місто: Україна, Львів
Сайти: Офіційний сайт
Видавець: SUSY Records
Виконавці:
* Святослав Вакарчук — вокал
* Петро Чернявський — гітара
* Денис Дудко — бас-гітара
* Мілош Єліч — клавішні
* Денис Глінін — перкусія
Пісні:
    1. З Нею
    2. Стіна
    3. Бодегіта
    4. Незалежність
    5. Rendez-Vous
    6. Стріляй
    7. Обійми
    8. Караван
    9. Джульєтта
    10. На небі
    11. Пори Року
    12. Коли навколо ні душі...


Тривалість: 00:49:15
Мова: українська
Аудіо-кодек: FLAC
Бітрейт: 679-975 кб/с
Джерело: рутрекер
Додаткова інформація: наявні скани, ріп з диску.
Exact Audio Copy
Exact Audio Copy V1.0 beta 3 from 29. August 2011

EAC extraction logfile from 25. May 2013, 16:56

Океан Ельзи / Земля

Used drive : HL-DT-STDVDRAM GH24NS95 Adapter: 0 ID: 0

Read mode : Secure
Utilize accurate stream : Yes
Defeat audio cache : Yes
Make use of C2 pointers : No

Read offset correction : 6
Overread into Lead-In and Lead-Out : No
Fill up missing offset samples with silence : Yes
Delete leading and trailing silent blocks : No
Null samples used in CRC calculations : Yes
Used interface : Native Win32 interface for Win NT & 2000
Gap handling : Appended to previous track

Used output format : User Defined Encoder
Selected bitrate : 768 kBit/s
Quality : High
Add ID3 tag : No
Command line compressor : C:\Program Files (x86)\Exact Audio Copy\FLAC\FLAC.EXE
Additional command line options : -6 -V -T "ARTIST=%artist%" -T "TITLE=%title%" -T "ALBUM=%albumtitle%" -T "DATE=%year%" -T "TRACKNUMBER=%tracknr%" -T "GENRE=%genre%" -T "COMMENT=%comment%" -T "BAND=%albuminterpret%" -T "ALBUMARTIST=%albuminterpret%" -T "COMPOSER=%composer%" %haslyrics%--tag-from-file=LYRICS="%lyricsfile%"%haslyrics% -T "DISCNUMBER=%cdnumber%" -T "TOTALDISCS=%totalcds%" -T "TOTALTRACKS=%numtracks%" %hascover%--picture="%coverfile%"%hascover% %source% -o %dest%

TOC of the extracted CD

Track | Start | Length | Start sector | End sector
---------------------------------------------------------
1 | 0:00.00 | 4:59.43 | 0 | 22467
2 | 4:59.43 | 3:30.25 | 22468 | 38242
3 | 8:29.68 | 4:07.02 | 38243 | 56769
4 | 12:36.70 | 3:17.62 | 56770 | 71606
5 | 15:54.57 | 4:13.38 | 71607 | 90619
6 | 20:08.20 | 4:51.37 | 90620 | 112481
7 | 24:59.57 | 3:45.69 | 112482 | 129425
8 | 28:45.51 | 3:53.70 | 129426 | 146970
9 | 32:39.46 | 4:40.03 | 146971 | 167973
10 | 37:19.49 | 3:44.50 | 167974 | 184823
11 | 41:04.24 | 4:58.25 | 184824 | 207198
12 | 46:02.49 | 3:13.26 | 207199 | 221699

Track 1

Filename E:\Lossless\Океан Ельзи\2013. Земля\01. З нею.wav

Pre-gap length 0:00:02.00

Peak level 99.9 %
Extraction speed 4.5 X
Track quality 100.0 %
Test CRC 67F3B939
Copy CRC 67F3B939
Track not present in AccurateRip database
Copy OK

Track 2

Filename E:\Lossless\Океан Ельзи\2013. Земля\02. Стіна.wav

Peak level 99.9 %
Extraction speed 1.1 X
Track quality 100.0 %
Test CRC A44C3EB7
Copy CRC A44C3EB7
Track not present in AccurateRip database
Copy OK

Track 3

Filename E:\Lossless\Океан Ельзи\2013. Земля\03. Бодегіта.wav

Pre-gap length 0:00:02.06

Peak level 99.9 %
Extraction speed 1.2 X
Track quality 100.0 %
Test CRC A34C9A66
Copy CRC A34C9A66
Track not present in AccurateRip database
Copy OK

Track 4

Filename E:\Lossless\Океан Ельзи\2013. Земля\04. Незалежність.wav

Pre-gap length 0:00:01.07

Peak level 99.9 %
Extraction speed 1.3 X
Track quality 100.0 %
Test CRC 69163F5A
Copy CRC 69163F5A
Track not present in AccurateRip database
Copy OK

Track 5

Filename E:\Lossless\Океан Ельзи\2013. Земля\05. Rendez-vous.wav

Pre-gap length 0:00:01.26

Peak level 99.9 %
Extraction speed 1.4 X
Track quality 100.0 %
Test CRC A497E810
Copy CRC A497E810
Track not present in AccurateRip database
Copy OK

Track 6

Filename E:\Lossless\Океан Ельзи\2013. Земля\06. Стріляй.wav

Pre-gap length 0:00:01.35

Peak level 99.9 %
Extraction speed 1.4 X
Track quality 99.9 %
Test CRC C73B02D5
Copy CRC C73B02D5
Track not present in AccurateRip database
Copy OK

Track 7

Filename E:\Lossless\Океан Ельзи\2013. Земля\07. Обійми.wav

Pre-gap length 0:00:02.22

Peak level 99.3 %
Extraction speed 1.6 X
Track quality 100.0 %
Test CRC 4857E2D4
Copy CRC 4857E2D4
Track not present in AccurateRip database
Copy OK

Track 8

Filename E:\Lossless\Океан Ельзи\2013. Земля\08. Караван.wav

Pre-gap length 0:00:01.08

Peak level 99.9 %
Extraction speed 1.7 X
Track quality 100.0 %
Test CRC F9F9626C
Copy CRC F9F9626C
Track not present in AccurateRip database
Copy OK

Track 9

Filename E:\Lossless\Океан Ельзи\2013. Земля\09. Джульєтта.wav

Pre-gap length 0:00:01.04

Peak level 99.9 %
Extraction speed 1.8 X
Track quality 100.0 %
Test CRC 717FF439
Copy CRC 717FF439
Track not present in AccurateRip database
Copy OK

Track 10

Filename E:\Lossless\Океан Ельзи\2013. Земля\10. На небі.wav

Pre-gap length 0:00:02.17

Peak level 100.0 %
Extraction speed 1.8 X
Track quality 100.0 %
Test CRC F7E5081E
Copy CRC F7E5081E
Track not present in AccurateRip database
Copy OK

Track 11

Filename E:\Lossless\Океан Ельзи\2013. Земля\11. Пори року.wav

Pre-gap length 0:00:02.19

Peak level 99.5 %
Extraction speed 2.0 X
Track quality 100.0 %
Test CRC F7C9FC22
Copy CRC F7C9FC22
Track not present in AccurateRip database
Copy OK

Track 12

Filename E:\Lossless\Океан Ельзи\2013. Земля\12. Коли навколо ні душі....wav

Pre-gap length 0:00:04.12

Peak level 88.4 %
Extraction speed 1.9 X
Track quality 100.0 %
Test CRC 98927BC9
Copy CRC 98927BC9
Track not present in AccurateRip database
Copy OK

None of the tracks are present in the AccurateRip database

No errors occurred

End of status report

==== Log checksum 1D67BBDB382E8F2ED5FAEF781EF35825D553114A175BF27721ADAA0014301FB3 ====
cue
REM GENRE Rock
REM DATE 2013
REM DISCID 900B8C0C
REM COMMENT "ExactAudioCopy v1.0b3"
PERFORMER "Океан Ельзи"
TITLE "Земля"
FILE "01. З нею.wav" WAVE
TRACK 01 AUDIO
TITLE "З нею"
PERFORMER "Океан Ельзи"
INDEX 01 00:00:00
FILE "02. Стіна.wav" WAVE
TRACK 02 AUDIO
TITLE "Стіна"
PERFORMER "Океан Ельзи"
INDEX 01 00:00:00
TRACK 03 AUDIO
TITLE "Бодегіта"
PERFORMER "Океан Ельзи"
INDEX 00 03:28:19
FILE "03. Бодегіта.wav" WAVE
INDEX 01 00:00:00
TRACK 04 AUDIO
TITLE "Незалежність"
PERFORMER "Океан Ельзи"
INDEX 00 04:05:70
FILE "04. Незалежність.wav" WAVE
INDEX 01 00:00:00
TRACK 05 AUDIO
TITLE "Rendez-vous"
PERFORMER "Океан Ельзи"
INDEX 00 03:16:36
FILE "05. Rendez-vous.wav" WAVE
INDEX 01 00:00:00
TRACK 06 AUDIO
TITLE "Стріляй"
PERFORMER "Океан Ельзи"
INDEX 00 04:12:03
FILE "06. Стріляй.wav" WAVE
INDEX 01 00:00:00
TRACK 07 AUDIO
TITLE "Обійми"
PERFORMER "Океан Ельзи"
INDEX 00 04:49:15
FILE "07. Обійми.wav" WAVE
INDEX 01 00:00:00
TRACK 08 AUDIO
TITLE "Караван"
PERFORMER "Океан Ельзи"
INDEX 00 03:44:61
FILE "08. Караван.wav" WAVE
INDEX 01 00:00:00
TRACK 09 AUDIO
TITLE "Джульєтта"
PERFORMER "Океан Ельзи"
INDEX 00 03:52:66
FILE "09. Джульєтта.wav" WAVE
INDEX 01 00:00:00
TRACK 10 AUDIO
TITLE "На небі"
PERFORMER "Океан Ельзи"
INDEX 00 04:37:61
FILE "10. На небі.wav" WAVE
INDEX 01 00:00:00
TRACK 11 AUDIO
TITLE "Пори року"
PERFORMER "Океан Ельзи"
INDEX 00 03:42:31
FILE "11. Пори року.wav" WAVE
INDEX 01 00:00:00
TRACK 12 AUDIO
TITLE "Коли навколо ні душі..."
PERFORMER "Океан Ельзи"
INDEX 00 04:54:13
FILE "12. Коли навколо ні душі....wav" WAVE
INDEX 01 00:00:00
Про альбом
Про новий альбом
Альбом писався у Бельгії, досить драматично, в декілька етапів. На певному етапі у нас сталися зміни в складі групи, але ми домовилися їх не коментувати. Ми хотіли видати альбом у середині квітня, але не встигли, перенесли на травень. У мене позавчора був день народження… Я вам скажу, випускати альбом в свій день народження – це непроста річ, занадто багато стресу, це too much. Над цим альбомом ми вперше працювали з англійським саунд-продюсером Кеном Нельсоном. Було дуже цікаво з ним працювати. Його цікавили самі пісні, він просив максимально усе спрощувати. Говорити, подобається нам цей альбом, чи ні було би смішно. Це як з дітьми. Нам подобаються всі наші альбоми. Кращий він чи гірший, покаже час. Немає кращого мірила, ніж час. Альбом в якомусь сенсі вийшов наївний, але разом з тим, ця наївність, простота мені страшенно подобаються. А найбільше – те, що це щось інше. Мені б дуже не хотілося, щоб "Океан Ельзи" колись перестав думати про те, що подобається йому, а почав іти на поводу тих, хто каже: "Зробіть "Глорію", "Зробіть "Dolce Vita", "Зробіть "Суперсиметрію", ще щось. Я ніколи не намагався штучно створити шедевр. Альбом як альбом. Років через 100 подивимось.

Про назву
Ми працювали на одній зі студій на території кіностудії Довженка. Ну, раз Довженко, чому б не "Земля"? Так з’явилася думка, що назва минулого альбому "Dolce Vita" повторювала назву фільму Фелліні, то чому б цього разу не вшанувати нашого українського генія? Але, з іншого боку, мені не приходило в голову, що хтось буде порівнювати альбом групи з фільмом режисера. Ніхто ж не порівнював попередній альбом з фільмом Фелліні. На обкладинці нашої платівки – не ґрунт, а насіння переважно українського походження, навіть конопля є. Тут 12 насінин, кожна з них відповідає окремій пісні. На нашу думку, земля цінна не сама собою, а тим, що з нею росте. Це, може, дитяча, але, як на мене, цікава ідея. Якби на обкладинці була зображена просто земля, це був би якийсь мортальний настрій.

Про особливі пісні
Я би виділив пісню "Незалежність", це моя улюблена пісня з альбому, не знаю, чому так сталося. Можливо, вона трошки незвична для мене, можливо, бо я пам’ятаю, як я її написав. Ще пісня "Коли навколо ні душі". Я її написав за 15 хвилин, коли хлопці в черговий раз налаштовували звук гітар. Вони були в іншій кімнаті, займалися своєю справою, я був сам. Не можу сказати, що я відчув себе одиноким, швидше, залишеним самим на себе.

Про зірковість
Кліп "Обійми" ми знімали у Лондоні. Знаєте, як буває: знімальна група – в одному місці, масовка, актори – в іншому, у кожного свої палатки, гримерки. А там – все спільно, всі – одна велика сім’я. Ти приходиш в одну велику кімнату, сидять всі – від режисера, продюсера, музиканта до освітлювачів і охоронців. Всі разом обідають за великим столом, обговорюють футбол. Це так круто! Це те, чого нам деколи не вистачає. Ми чомусь розділяємо на касти, "зірки – не зірки", на деяких знімальних майданчиках є кімнати для персоналу, VIP-туалети. Це якось так неправильно. Ми цього страшно не любимо і намагаємося переймати інший стиль. Кожен знаходить в піснях те, що він знаходить. Мені подобається багатозначність, свідома чи несвідома. Але цінність цих багатозначностей зникає, коли починаєш їх пояснювати.
Також на Толоці Ви можете знайти:
Океан Ельзи - Стріляй (2013) 1080p | Rock


Якщо Ви справді бажаєте підтримати українське - після прослуховування, якщо музика вам сподобалась, придбайте ліцензійний диск.
Підтримаймо вітчизняних виконавців!


Срібний реліз (на рейтинг впливає 50% завантаженого)
 Трекер:    Зареєстрований   

Завантажити / скачати українську музику



відео для новачків



 Зареєстрований:   2013-05-26 04:54
 Розмір:   344 MB 
 Оцінка музики:   9.8/10 (Голосів: 56)
   
ingwar 
Модератор літератури


З нами з: 08.03.08
Востаннє: 05.12.16
Повідомлень: 1200

2013-05-26 07:30  
А в чому відмінність від попередньої роздачі цього альбому у FLAC?
Kucherman 
Частий відвідувач


З нами з: 03.06.08
Востаннє: 04.11.16
Повідомлень: 46

2013-05-26 10:00  
ingwar, я так зрозумів, що відмінність у тому, що це ріп з аудіодиску, а попередній завантажений з інтернету.
sergiyko 
Забанено
Забанено


З нами з: 17.06.08
Востаннє: 13.10.13
Повідомлень: 259

2013-05-26 10:18  
Допоможу бажаючим завантажити реліз.
ssTAss 
Модератор музики


З нами з: 05.07.08
Востаннє: 06.12.16
Повідомлень: 10946

2013-05-26 13:57  
навіщо було створювати нову роздачу?
треба було просто оновити попередню
щоб не було плутанини, старий реліз переніс в смітник

Franchek 
Свій


З нами з: 14.07.09
Востаннє: 06.09.13
Повідомлень: 114

2013-06-26 22:50  
Дякую хлолпці, пісні з концерту так чекав щоб сісти за Компутер і записати
Ваш часовий пояс: GMT + 2 Години

Нова тема   Відповісти