Завантажити та скачати торренти українською


Zgard - Reclusion (2012) [FLAC] | Atmospheric Black / Pagan Metal

Нові коментарі

Нова тема   Відповісти
Останній раз роздавалося yatswish (2016-12-07)
Автор Повідомлення
iwan wan 
VIP


З нами з: 01.10.09
Востаннє: 09.12.16
Повідомлень: 1762

2013-05-25 00:12  
Zgard - Reclusion (2012) [FLAC] | Atmospheric Black / Pagan Metal



Стиль: Atmospheric Black / Pagan Metal
Країна, місто: Україна, Львів
Видавець: Badmoodman Music
Виконавці:
Яромисл - усі інструменти.
Пісні:
    1.Ice Indifference 02:32
    2.Reclusion 08:36
    3.Winter Withcraft 07:22
    4.Eternity 06:48
    5.Rise Of Coldness 10:08
    6.Despair 07:36
    7.Weeping Goddess 06:26
    8.In The Roots Of World Tree 06:34

Тривалість: 00:49:28
Мова: українська (2, 4-6), російська (3, 7)
Аудіо-кодек: FLAC
Бітрейт: 1024 кб/с
Джерело: Інтернет
Додаткова інформація:
Zgard - одноосібний проект гітариста гурту Говерла.
log

Exact Audio Copy V1.0 beta 3 from 29. August 2011

EAC extraction logfile from 18. February 2012, 23:35

Zgard / Reclusion

Used drive : MATSHITABD-CMB UJ242AS Adapter: 0 ID: 1

Read mode : Secure
Utilize accurate stream : Yes
Defeat audio cache : Yes
Make use of C2 pointers : No

Read offset correction : 103
Overread into Lead-In and Lead-Out : No
Fill up missing offset samples with silence : Yes
Delete leading and trailing silent blocks : No
Null samples used in CRC calculations : Yes
Used interface : Native Win32 interface for Win NT & 2000

Used output format : User Defined Encoder
Selected bitrate : 1024 kBit/s
Quality : High
Add ID3 tag : Yes
Command line compressor : C:\Program Files (x86)\Exact Audio Copy\Flac\flac.exe
Additional command line options : -6 -V %source%

TOC of the extracted CD

Track | Start | Length | Start sector | End sector
---------------------------------------------------------
1 | 0:00.00 | 2:32.00 | 0 | 11399
2 | 2:32.00 | 8:36.15 | 11400 | 50114
3 | 11:08.15 | 7:22.00 | 50115 | 83264
4 | 18:30.15 | 6:48.00 | 83265 | 113864
5 | 25:18.15 | 10:08.00 | 113865 | 159464
6 | 35:26.15 | 7:36.00 | 159465 | 193664
7 | 43:02.15 | 6:26.00 | 193665 | 222614
8 | 49:28.15 | 6:34.00 | 222615 | 252164

Range status and errors

Selected range

Filename C:\EACrip\Zgard - Reclusion.wav

Peak level 95.5 %
Extraction speed 4.1 X
Range quality 100.0 %
Test CRC ADB9356D
Copy CRC ADB9356D
Copy OK

No errors occurred

AccurateRip summary

Track 1 not present in database
Track 2 not present in database
Track 3 not present in database
Track 4 not present in database
Track 5 not present in database
Track 6 not present in database
Track 7 not present in database
Track 8 not present in database

None of the tracks are present in the AccurateRip database

End of status report

==== Log checksum A58F25FFB1A4A92F88D1A9900E88066FD36041354EF2A453079C2C926A3F9660 ====
Якщо Ви справді бажаєте підтримати українське - після прослуховування, якщо музика вам сподобалась, придбайте ліцензійний диск. Підтримаймо вітчизняних виконавців!


Срібний реліз (на рейтинг впливає 50% завантаженого)
 Трекер:    Зареєстрований   

Завантажити / скачати українську музику



відео для новачків



 Зареєстрований:   2013-05-25 00:12
 Розмір:   451 MB 
 Оцінка музики:   10/10 (Голосів: 1)
   
Ваш часовий пояс: GMT + 2 Години

Нова тема   Відповісти